Today is a free download without charge Download

Tait Stages: Linkin Park "The Playground" (2013) [AXS TV] [2013, Alternative Rock, HDTV 1080i]

Reply to topic
 
Author
Message

Omen ®

Longevity: 8 years 3 months

Posts: 181087

Торрент-статистика

Post 11-Jul-2013 21:56

[Quote]

Tait Stages: Linkin Park "The Playground" (2013) [AXS TV]
Жанр: Alternative Rock
Продолжительность: 24m:55s
Год выпуска: 2013
Описание: Tait's Project Manager, Brian Levine, meets up with Linkin Park in Los Angeles for their load-in and live broadcast of their Civic Tour.
Доп. информация: Здесь рассказывается о том что происходило за кулисами Honda Civic Tour 08.09.2012, как шла подготовка к Honda Civic разработка сцены, кто помогает Linkin Park в их выступления на концертах, кто за что отвечает на концертах и немного самой группы на видео есть и прочее.
Запись сделал человек под ником Nick
Качество: HDTV 1080i
Контейнер: TS
Видео кодек: MPEG2
Видео: 1920x1080 | 16.5 Mbps | 29.970 fps
Аудио: AC-3 | 384 Kbps | 6 ch | 48.0 KHz

Отчёт MediaInfo / BDInfo

GeneralID : 1 (0x1)Complete name : Tait Stages - Linkin Park 'The Playground'.tsFormat : MPEG-TSFile size : 3.09 GiBDuration : 24mn 55sOverall bit rate mode : VariableOverall bit rate : 17.7 Mbps
VideoID : 6081 (0x17C1)Menu ID : 1 (0x1)Format : MPEG VideoFormat version : Version 2Format profile : [email protected] settings, BVOP : YesFormat settings, Matrix : CustomFormat settings, GOP : M=3, N=15Codec ID : 2Duration : 24mn 55sBit rate mode : VariableBit rate : 16.5 MbpsMaximum bit rate : 65.0 MbpsWidth : 1 920 pixelsHeight : 1 080 pixelsDisplay aspect ratio : 16:9Frame rate : 29.970 fpsColor space : YUVChroma subsampling : 4:2:0Bit depth : 8 bitsScan type : InterlacedScan order : Top Field FirstCompression mode : LossyBits/(Pixel*Frame) : 0.265Time code of first frame : 00:00:00;00Time code source : Group of pictures headerStream size : 2.87 GiB (93%)
AudioID : 6083 (0x17C3)Menu ID : 1 (0x1)Format : AC-3Format/Info : Audio Coding 3Mode extension : CM (complete main)Format settings, Endianness : BigCodec ID : 129Duration : 24mn 55sBit rate mode : ConstantBit rate : 384 KbpsChannel(s) : 6 channelsChannel positions : Front: L C R, Side: L R, LFESampling rate : 48.0 KHzBit depth : 16 bitsCompression mode : LossyStream size : 68.5 MiB (2%)Language : English
Text #1ID : 6081 (0x17C1)-CC1Menu ID : 1 (0x1)Format : EIA-608Muxing mode : A/53 / DTVCC TransportMuxing mode, more info : Muxed in Video #1Duration : 24mn 55sBit rate mode : ConstantStream size : 0.00 Byte (0%)
Text #2ID : 6081 (0x17C1)-1Menu ID : 1 (0x1)Format : EIA-708Muxing mode : A/53 / DTVCC TransportMuxing mode, more info : Muxed in Video #1Duration : 24mn 55sBit rate mode : ConstantStream size : 0.00 Byte (0%)
Other forum [Profile] [PM]
Display posts from previous:    
Reply to topic

The time now is: Today 22:53

All times are GMT + 3 Hours



You cannot post new topics in this forum
You cannot reply to topics in this forum
You cannot edit your posts in this forum
You cannot delete your posts in this forum
You cannot vote in polls in this forum
You cannot attach files in this forum
You cannot download files in this forum