Today is a free download without charge Download

The Rolling Stones: Some Girls - Live in Texas 1978 [2011, Rock, BDRip, AVC, 720p]

Reply to topic
 
Author
Message

Omen ®

Longevity: 8 years 4 months

Posts: 181087

Торрент-статистика

Post 11-Jul-2013 21:56

[Quote]

The Rolling Stones: Some Girls - Live in Texas 1978- Год выпуска: 2011 Жанр: Rock
Продолжительность: 01:25:11
Выпущено: Eagle Rock Entertainment 21 ноября 2011 года-Описание: Основной материал был заснят в Форт Ворте, Техас, США (Fort Worth, Texas, USA), 18 июля 1978 года. Звук прошел ремикширование и ремастеринг, оригинальное видео было восстановлено.
В ролях: Mick Jagger (Мик Джаггер), Keith Richards (Кит Ричардс), Ronnie Wood (Рон Вуд), Bill Wyman (Билл Уаймен), Charlie Watts (Чарли Уоттс)-Исходный файл из раздачи-Качество: HDTVRip Формат: MKV Видео кодек: H.264 Аудио кодек: AC3-Видео: MPEG4 Video H.264 1280x720 29.97 fps Bit rate 4790 Kbps Aspect Ratio 16:9
Аудио 1: Английский AAC 48000 Hz 6 channels 640 Kbps
Аудио 2: Английский AAC 48000 Hz stereo 640 Kbps-Доп.инфо: главы в соответствии с "плэй листом"

Playlist:

01. Let It Rock
02. All Down The Line
03. Honky Tonk Women
04. Star Star
05. When The Whip Comes Down
06. Beast Of Burden
07. Miss You
08. Just My Imagination (Running Away With Me)
09. Shattered
10. Respectable
11. Far Away Eyes
12. Love In Vain
13. Tumbling Dice
14. Happy
15. Sweet Little Sixteen
16. Brown Sugar
17. Jumpin' Jack Flash

Скриншоты: кликните для увеличения



MediaInfo:

General
Format : Matroska
Format version : Version 4 / Version 2
File size : 3.68 GiB
Duration : 1h 25mn
Overall bit rate : 6 193 Kbps
Movie name : The Rolling Stones. Some Girls. Live in Texas (1978)
Encoded date : UTC 2010-02-22 21:41:31
Writing application : mkvmerge v5.9.0 ('On The Loose') built on Dec 9 2012 15:37:01
Writing library : libebml v1.3.0 + libmatroska v1.4.0
Video
ID : 1
Format : AVC
Format/Info : Advanced Video Codec
Format profile : [email protected]
Format settings, CABAC : Yes
Format settings, ReFrames : 4 frames
Codec ID : V_MPEG4/ISO/AVC
Duration : 1h 25mn
Bit rate : 4 790 Kbps
Width : 1 280 pixels
Height : 720 pixels
Display aspect ratio : 16:9
Frame rate mode : Constant
Frame rate : 29.970 fps
Color space : YUV
Chroma subsampling : 4:2:0
Bit depth : 8 bits
Scan type : Progressive
Bits/(Pixel*Frame) : 0.173
Stream size : 2.85 GiB (77%)
Writing library : x264 core 125 r2208 d9d2288
Encoding settings : cabac=1 / ref=4 / deblock=1:-1:-1 / analyse=0x3:0x113 / me=umh / subme=9 / psy=1 / psy_rd=1.00:0.10 / mixed_ref=1 / me_range=16 / chroma_me=1 / trellis=2 / 8x8dct=1 / cqm=0 / deadzone=21,11 / fast_pskip=0 / chroma_qp_offset=-3 / threads=3 / lookahead_threads=1 / sliced_threads=0 / nr=0 / decimate=1 / interlaced=0 / bluray_compat=0 / constrained_intra=0 / bframes=3 / b_pyramid=2 / b_adapt=2 / b_bias=0 / direct=3 / weightb=1 / open_gop=0 / weightp=2 / keyint=250 / keyint_min=25 / scenecut=40 / intra_refresh=0 / rc_lookahead=50 / rc=crf / mbtree=1 / crf=19.5 / qcomp=0.60 / qpmin=0 / qpmax=69 / qpstep=4 / ip_ratio=1.40 / aq=1:1.00
Language : English
Default : Yes
Forced : No
Audio #1
ID : 2
Format : AC-3
Format/Info : Audio Coding 3
Mode extension : CM (complete main)
Format settings, Endianness : Big
Codec ID : A_AC3
Duration : 1h 25mn
Bit rate mode : Constant
Bit rate : 640 Kbps
Channel(s) : 6 channels
Channel positions : Front: L C R, Side: L R, LFE
Sampling rate : 48.0 KHz
Bit depth : 16 bits
Compression mode : Lossy
Stream size : 390 MiB (10%)
Title : 6 Channels
Language : English
Default : Yes
Forced : No
Audio #2
ID : 3
Format : AC-3
Format/Info : Audio Coding 3
Mode extension : CM (complete main)
Format settings, Endianness : Big
Codec ID : A_AC3
Duration : 1h 25mn
Bit rate mode : Constant
Bit rate : 640 Kbps
Channel(s) : 2 channels
Channel positions : Front: L R
Sampling rate : 48.0 KHz
Bit depth : 16 bits
Compression mode : Lossy
Stream size : 390 MiB (10%)
Title : Stereo
Language : English
Default : No
Forced : No
Menu
00:00:00.000 : en:01. Let It Rock
00:03:20.200 : en:02. All Down The Line
00:07:16.435 : en:03. Honky Tonk Women
00:10:57.656 : en:04. Star Star
00:15:01.901 : en:05. When The Whip Comes Down
00:20:19.218 : en:06. Beast Of Burden
00:26:54.212 : en:07. Miss You
00:35:36.134 : en:08. Just My Imagination (Running Away With Me)
00:42:25.175 : en:09. Shattered
00:47:39.690 : en:10. Respectable
00:51:02.059 : en:11. Far Away Eyes
00:57:05.555 : en:12. Love In Vain
01:01:58.715 : en:13. Tumbling Dice
01:06:33.656 : en:14. Happy
01:10:16.212 : en:15. Sweet Little Sixteen
01:13:42.418 : en:16. Brown Sugar
01:17:17.633 : en:17. Jumpin’ Jack Flash
01:25:10.438 : en:
Other forum [Profile] [PM]
Display posts from previous:    
Reply to topic

The time now is: Today 22:21

All times are GMT + 3 Hours



You cannot post new topics in this forum
You cannot reply to topics in this forum
You cannot edit your posts in this forum
You cannot delete your posts in this forum
You cannot vote in polls in this forum
You cannot attach files in this forum
You cannot download files in this forum