Today is a free download without charge Download

Avril Lavigne - Here's To Never Growing Up (MMVA - MuchMusic Video Awards) [2013, Pop-Rock, HDTV 1080i]

Reply to topic
 
Author
Message

Omen ®

Longevity: 8 years 4 months

Posts: 181087

Торрент-статистика

Post 11-Jul-2013 17:48

[Quote]

Avril Lavigne - Here's To Never Growing Up (MMVA)
-Жанр:Pop-Rock
Продолжительность:00:03:31
Год выпуска:2013-Доп. информация:
Credits to TrollHD-Качество: HDTV 1080i
Контейнер: MKV
Видео кодек: MPEG
Аудио кодек: AC3
Видео: MPEG Video at 16.7 Mbps 1920 x 1080 at 29.970 fps
Аудио: AС3 Audio at 384 Kbps 6 channels, 44.1 KHz
Аудио 2: AС3 Audio at 384 Kbps 6 channels, 48.0 KHz-К видео была добавлена дополнительная звуковая дорожка, т.к исходная - испорчена в конце.-
-

Скриншоты

Отчёт MediaInfo / BDInfo

Формат : MatroskaВерсия формата : Version 2Размер файла : 450 МбайтПродолжительность : 3 м. 31 с.Режим общего битрейта : ПеременныйОбщий поток : 17,9 Мбит/секДата кодирования : UTC 2013-07-11 11:58:16Программа кодирования : mkvmerge v5.3.0 ('I could have danced') built on Feb 9 2012 10:38:07Библиотека кодирования : libebml v1.2.3 + libmatroska v1.3.0
ВидеоИдентификатор : 1Формат : MPEG VideoВерсия формата : Version 2Профиль формата : [email protected]Параметр BVOP формата : НетПараметр матрицы формата : ВыборочнаяИдентификатор кодека : V_MPEG2Идентификатор кодека/Информация : MPEG 1 or 2 VideoПродолжительность : 3 м. 31 с.Вид битрейта : ПеременныйБитрейт : 16,7 Мбит/секМаксимальный битрейт : 18,0 Мбит/секШирина : 1920 пикселейВысота : 1080 пикселейСоотношение сторон : 16:9Режим частоты кадров : ПостоянныйЧастота кадров : 29,970 кадров/секЦветовое пространство : YUVСубдискретизация насыщенности : 4:2:0Битовая глубина : 8 битТип развёртки : ЧересстрочнаяПорядок развёртки : Верхнее поле первоеМетод сжатия : С потерямиБит/(Пиксели*Кадры) : 0.269TimeCode_FirstFrame : 00:00:00;00TimeCode_Source : Group of pictures headerРазмер потока : 421 Мбайт (94%)Default : ДаForced : Нет
Аудио #1Идентификатор : 2Формат : AC-3Формат/Информация : Audio Coding 3Расширение режима : CM (complete main)Параметр Endianness формата : BigРежим смешивания : Header strippingИдентификатор кодека : A_AC3Продолжительность : 3 м. 31 с.Вид битрейта : ПостоянныйБитрейт : 384 Кбит/секКаналы : 6 каналовРасположение каналов : Front: L C R, Side: L R, LFEЧастота : 44,1 КГцБитовая глубина : 16 битМетод сжатия : С потерямиРазмер потока : 9,67 Мбайт (2%)Default : ДаForced : Нет
Аудио #2Идентификатор : 3Формат : AC-3Формат/Информация : Audio Coding 3Расширение режима : CM (complete main)Параметр Endianness формата : BigРежим смешивания : Header strippingИдентификатор кодека : A_AC3Продолжительность : 3 м. 31 с.Вид битрейта : ПостоянныйБитрейт : 384 Кбит/секКаналы : 6 каналовРасположение каналов : Front: L C R, Side: L R, LFEЧастота : 48,0 КГцБитовая глубина : 16 битМетод сжатия : С потерямиРазмер потока : 9,67 Мбайт (2%)Язык : EnglishDefault : НетForced : Нет
Other forum [Profile] [PM]
Display posts from previous:    
Reply to topic

The time now is: Today 09:36

All times are GMT + 3 Hours



You cannot post new topics in this forum
You cannot reply to topics in this forum
You cannot edit your posts in this forum
You cannot delete your posts in this forum
You cannot vote in polls in this forum
You cannot attach files in this forum
You cannot download files in this forum