Today is a free download without charge Download

Мария, Мирабела / Мария и Мирабела в Транзистории / Maria, Mirabela / Maria, Mirabela in Tranzistoria (Ион Попеску-Гопо, Наталья Бодюл) (мультфильм, мюзикл, фэнтези, комедия, семейный 1981, 1988) DVD9

Reply to topic
 
Author
Message

Omen ®

Longevity: 8 years 6 months

Posts: 181087

Торрент-статистика

Post 11-Jul-2013 15:47

[Quote]

Мария, Мирабела- Год выпуска: 1981
Страны: Румыния , СССР
Жанры: мультфильм, мюзикл, фэнтези, комедия, семейный
Продолжительность: 01:07:31
Режиссер: Ион Попеску-Гопо, Наталья Бодюл
Сценарий: Ион Попеску-Гопо, Ион Крянгэ
Оператор: Алеку Попеску, Борис Котов
Композитор : Евгений Дога
Художник: Лев Мильчин, Виктор Дудко, Ион Попеску-Гопо, ...
Монтаж: Елена Белявская, С. Кусурсуз
В ролях: Джилда Манолеску (Мария), Медея Маринеску (Мирабела), Ингрид Челия (фея), Ион Попеску-Гопо (дядюшка Время), Мария Виноградова (Кваки, озвучка), Людмила Гнилова (Мария, озвучка), Рогволд Суховерко (озвучка), Клара Румянова (Омеде, озвучка)

Описание: Герои этого цветного рисованного, полнометражного мультфильма — лягушонок Кваки, Светлячок и Бабочка дружно жили в лесу. Но случилась беда — Светлячок разучился светить, Бабочка разучилась летать, а лягушонок вмерз в льдину, не успев спрятаться от мороза. Ужас, да? Но, слава Богу, сестры-близнецы Мария и Мирабела с помощью доброй лесной Феи помогли им вернуться в лес, и все стало как прежде.
Премьера (мир): 21 мая 1982, ...-
Субтитры: нет
Качество: DVD9
Формат: DVD Video
Видео кодек: MPEG-2 Video
Аудио кодек: AC3
Видео: 720x576 (16:9), 25.000 fps, MPEG-2 Video, 5 878 Kbps
Аудио:
Аудио #1: AC3, 192 Kbps, 48.0 KHz, 2 ch, русский
Аудио #2: AC3, 448 Kbps, 48.0 KHz, 6 ch, румынский

МедиаИнфо

Код:
General
Complete name                    : VTS_01_2.VOB
Format                           : MPEG-PS
File size                        : 1 024 MiB
Duration                         : 21mn 31s
Overall bit rate                 : 6 650 Kbps
Video
ID                               : 224 (0xE0)
Format                           : MPEG Video
Format version                   : Version 2
Format profile                   : [email protected]
Format settings, BVOP            : Yes
Format settings, Matrix          : Default
Format settings, GOP             : M=3, N=12
Duration                         : 21mn 31s
Bit rate mode                    : Variable
Bit rate                         : 5 878 Kbps
Nominal bit rate                 : 7 100 Kbps
Width                            : 720 pixels
Height                           : 576 pixels
Display aspect ratio             : 16:9
Frame rate                       : 25.000 fps
Standard                         : PAL
Color space                      : YUV
Chroma subsampling               : 4:2:0
Bit depth                        : 8 bits
Scan type                        : Progressive
Bits/(Pixel*Frame)               : 0.567
Stream size                      : 905 MiB (88%)
Audio #1
ID                               : 128 (0x80)
Format                           : AC-3
Format/Info                      : Audio Coding 3
Mode extension                   : CM (complete main)
Duration                         : 21mn 31s
Bit rate mode                    : Constant
Bit rate                         : 192 Kbps
Channel(s)                       : 2 channels
Channel positions                : Front: L R
Sampling rate                    : 48.0 KHz
Bit depth                        : 16 bits
Video delay                      : -328ms
Stream size                      : 29.6 MiB (3%)
Audio #2
ID                               : 129 (0x81)
Format                           : AC-3
Format/Info                      : Audio Coding 3
Mode extension                   : CM (complete main)
Duration                         : 21mn 31s
Bit rate mode                    : Constant
Bit rate                         : 448 Kbps
Channel(s)                       : 6 channels
Channel positions                : Front: L C R, Side: L R, LFE
Sampling rate                    : 48.0 KHz
Bit depth                        : 16 bits
Video delay                      : -360ms
Stream size                      : 69.0 MiB (7%)
Menu
Скриншоты:
                   
--Мария и Мирабела в Транзистории- Год выпуска: 1988
Страны: Румыния , СССР
Жанры: мультфильм, мюзикл, фэнтези, семейный
Продолжительность: 01:05:08
Режиссер: Ион Попеску-Гопо
Сценарий: Валентин Ежов, Ион Попеску-Гопо, Григоре Виеру
Оператор: Алеку Попеску
Композитор : Евгений Дога
Художник: Татьяна Колюшева, Константин Симионеску
В ролях: Иоана Морару , Стела Попеску , Андриану Кучинска , Григоре Григориу , Елена Зайцева , Ион Дикисяну , Йорж Войчу , Хорациу Мэлэеле / (в титрах: Horacio Meleele)

Описание: Продолжение музыкального анимационно-игрового фильма «Мария, Мирабела». Герои сказки: сестренки-близнецы Мария и Мирабела, а также их друзья — сверчок Скипирич, бабочка Олидэ и лягушонок Кваки. Девочки немножко подросли и попали в телевизор. В телевизоре все мультяшки — дома, потому Омидэ, Скипирич и Кваки перевоплощаются в людей.
Премьера (мир): 10 апреля 1989-
Субтитры: нет
Качество: DVD9
Формат: DVD Video
Видео кодек: MPEG-2 Video
Аудио кодек: AC3
Видео: 720x576 (4:3), 25.000 fps, MPEG-2 Video, 6 000 Kbps
Аудио:
Аудио #1: AC3, 192 Kbps, 48.0 KHz, 2 ch, русский
Аудио #2: AC3, 448 Kbps, 48.0 KHz, 6 ch, румынский

МедиаИнфо

Код:
General
Complete name                    : VTS_02_2.VOB
Format                           : MPEG-PS
File size                        : 1 024 MiB
Duration                         : 21mn 8s
Overall bit rate                 : 6 769 Kbps
Video
ID                               : 224 (0xE0)
Format                           : MPEG Video
Format version                   : Version 2
Format profile                   : [email protected]
Format settings, BVOP            : Yes
Format settings, Matrix          : Default
Format settings, GOP             : M=3, N=12
Duration                         : 21mn 8s
Bit rate mode                    : Variable
Bit rate                         : 6 000 Kbps
Width                            : 720 pixels
Height                           : 576 pixels
Display aspect ratio             : 4:3
Frame rate                       : 25.000 fps
Standard                         : PAL
Color space                      : YUV
Chroma subsampling               : 4:2:0
Bit depth                        : 8 bits
Scan type                        : Interlaced
Scan order                       : Bottom Field First
Bits/(Pixel*Frame)               : 0.579
Stream size                      : 907 MiB (89%)
Audio #1
ID                               : 128 (0x80)
Format                           : AC-3
Format/Info                      : Audio Coding 3
Mode extension                   : CM (complete main)
Duration                         : 21mn 8s
Bit rate mode                    : Constant
Bit rate                         : 192 Kbps
Channel(s)                       : 2 channels
Channel positions                : Front: L R
Sampling rate                    : 48.0 KHz
Bit depth                        : 16 bits
Video delay                      : -608ms
Stream size                      : 29.0 MiB (3%)
Audio #2
ID                               : 129 (0x81)
Format                           : AC-3
Format/Info                      : Audio Coding 3
Mode extension                   : CM (complete main)
Duration                         : 21mn 8s
Bit rate mode                    : Constant
Bit rate                         : 448 Kbps
Channel(s)                       : 6 channels
Channel positions                : Front: L C R, Side: L R, LFE
Sampling rate                    : 48.0 KHz
Bit depth                        : 16 bits
Video delay                      : -672ms
Stream size                      : 67.8 MiB (7%)
Menu

DVDInfo

Title: Elements
Size: 7.53 Gb ( 7 891 426 KBytes ) - DVD-9
Enabled regions: 1, 2, 3, 4, 5, 6, 8
VTS_01 :
Play Length: 01:05:08
Video: PAL 16:9 (720x576) VBR, Auto Pan&Scan
Audio:
  • Russian (Dolby AC3, 6 ch)
  • Romanian (Dolby AC3, 6 ch)
    VTS_02 :
    Play Length: 01:07:04
    Video: PAL 4:3 (720x576) VBR
    Audio:
  • Russian (Dolby AC3, 2 ch)
  • Romanian (Dolby AC3, 6 ch)
    VTS_03 :
    Play Length: 00:27:40
    Video: PAL 16:9 (720x576) VBR, Auto Pan&Scan
    Audio:
  • Romanian (Dolby AC3, 2 ch)
  • Romanian (Dolby AC3, 2 ch)
    VTS_04 :
    Play Length: 00:00:30
    Video: PAL 16:9 (720x576) VBR, Auto Pan&Scan
    Audio:
  • Romanian (Dolby AC3, 2 ch)
  • Romanian (Dolby AC3, 2 ch)

Дополнительно

Бонусы: Интервью артистов

Скриншоты меню

 
Скриншоты:
                   
-
Other forum [Profile] [PM]
Similar theme
Forum Topic Author Torrent Replies Last Post
./templates/default/images/folder_dl.gif Фантастика, фэнтези, ужасы, мистика Мария Стрелова | Метро 2033: Нас больше нет (2018) [FB2] }{@R0N
1 | 0

0 | 724

1

2018-08-05 12:54
}{@R0N Latest
./templates/default/images/folder_dl.gif Фантастика, фэнтези, ужасы, мистика Мария Стрелова | Метро 2033: Призраки прошлого (2019) [FB2] }{@R0N
1 | 0

0 | 926

0

2019-06-09 22:58
}{@R0N Latest
Display posts from previous:    
Reply to topic

The time now is: Today 02:37

All times are GMT + 3 Hours



You cannot post new topics in this forum
You cannot reply to topics in this forum
You cannot edit your posts in this forum
You cannot delete your posts in this forum
You cannot vote in polls in this forum
You cannot attach files in this forum
You cannot download files in this forum