Today is a free download without charge Download

Неудачники (Александр Давыдов) [1983, рисованный мультфильм, DVB]

Reply to topic
 
Author
Message

Omen ®

Longevity: 8 years 11 months

Posts: 181086

Торрент-статистика

Post 10-Jul-2013 21:29

[Quote]

Неудачники
Жанр: рисованный мультфильм
Год выпуска: 1983
Продолжительность: 00:09:28
Режиссёр: Александр Давыдов
Описание: История про пса, который решил поучаствовать в спортивных состязаниях дворовых собак, под чутким контролем своего друга кота, который становится его тренером ...
Трансляция спутникового канала: "Карусель"
Качество видео: DVB
Формат видео: MPEG-PS
Видео: MPEG2 Video, 720x576, 25 fps, 3800 kbps
Аудио: MPEG Audio, 2 сh, 48 kHz, 192 kbps

MediaInfo

General
Complete name : D:\Неудачники. (1983)_DVB by SLuMeP.mpg
Format : MPEG-PS
File size : 276 MiB
Duration : 9mn 28s
Overall bit rate mode : Variable
Overall bit rate : 4 071 Kbps
Video
ID : 224 (0xE0)
Format : MPEG Video
Format version : Version 2
Format profile : [email protected]
Format settings, BVOP : Yes
Format settings, Matrix : Custom
Format settings, GOP : M=3, N=12
Duration : 9mn 28s
Bit rate mode : Variable
Bit rate : 3 798 Kbps
Maximum bit rate : 5 000 Kbps
Width : 720 pixels
Height : 576 pixels
Display aspect ratio : 4:3
Frame rate : 25.000 fps
Standard : PAL
Color space : YUV
Chroma subsampling : 4:2:0
Bit depth : 8 bits
Scan type : Interlaced
Scan order : Top Field First
Compression mode : Lossy
Bits/(Pixel*Frame) : 0.366
Time code of first frame : 00:00:00:00
Time code source : Group of pictures header
Stream size : 257 MiB (93%)
Audio
ID : 192 (0xC0)
Format : MPEG Audio
Format version : Version 1
Format profile : Layer 2
Duration : 9mn 28s
Bit rate mode : Constant
Bit rate : 192 Kbps
Channel(s) : 2 channels
Sampling rate : 48.0 KHz
Compression mode : Lossy
Stream size : 13.0 MiB (5%)

Скриншоты

Other forum [Profile] [PM]
Display posts from previous:    
Reply to topic

The time now is: Today 11:40

All times are GMT + 3 Hours



You cannot post new topics in this forum
You cannot reply to topics in this forum
You cannot edit your posts in this forum
You cannot delete your posts in this forum
You cannot vote in polls in this forum
You cannot attach files in this forum
You cannot download files in this forum