Today is a free download without charge Download

Цыпленок в клеточку (Леонид Зарубин) [1978 г., кукольный мультфильм , DVB]

Reply to topic
 
Author
Message

Omen ®

Longevity: 7 years 11 months

Posts: 181087

Торрент-статистика

Post 10-Jul-2013 21:29

[Quote]

Цыпленок в клеточку
Жанр: рисованный мультфильм
Год выпуска: 1978
Продолжительность: 00:09:17
Режиссёр: Леонид Зарубин
Описание: Цыпленок в клеточку не хотел ни с кем дружить, потому что другие были кто в полосочку, кто в крапинку. Но однажды он чуть не утонул, и все пришли к нему на помощь ...
Доп. информация:

Трансляция спутникового канала: "Карусель"
Качество видео: DVB
Формат видео: MPEG-PS
Видео: MPEG2 Video, 720x576, 25 fps, 3500 kbps
Аудио: MPEG Audio, 2 сh, 48 kHz, 192 kbps

MediaInfo

General
Complete name : D:\Цыплёнок в клеточку. (1978)_DVB by SLuMeP.mpg
Format : MPEG-PS
File size : 248 MiB
Duration : 9mn 17s
Overall bit rate mode : Variable
Overall bit rate : 3 736 Kbps
Video
ID : 224 (0xE0)
Format : MPEG Video
Format version : Version 2
Format profile : [email protected]
Format settings, BVOP : Yes
Format settings, Matrix : Custom
Format settings, GOP : M=3, N=12
Duration : 9mn 17s
Bit rate mode : Variable
Bit rate : 3 470 Kbps
Maximum bit rate : 5 000 Kbps
Width : 720 pixels
Height : 576 pixels
Display aspect ratio : 4:3
Frame rate : 25.000 fps
Standard : PAL
Color space : YUV
Chroma subsampling : 4:2:0
Bit depth : 8 bits
Scan type : Interlaced
Scan order : Top Field First
Compression mode : Lossy
Bits/(Pixel*Frame) : 0.335
Time code of first frame : 00:00:00:00
Time code source : Group of pictures header
Stream size : 231 MiB (93%)
Audio
ID : 192 (0xC0)
Format : MPEG Audio
Format version : Version 1
Format profile : Layer 2
Duration : 9mn 17s
Bit rate mode : Constant
Bit rate : 192 Kbps
Channel(s) : 2 channels
Sampling rate : 48.0 KHz
Compression mode : Lossy
Stream size : 12.8 MiB (5%

Скриншоты

Other forum [Profile] [PM]
Display posts from previous:    
Reply to topic

The time now is: Today 21:03

All times are GMT + 3 Hours



You cannot post new topics in this forum
You cannot reply to topics in this forum
You cannot edit your posts in this forum
You cannot delete your posts in this forum
You cannot vote in polls in this forum
You cannot attach files in this forum
You cannot download files in this forum