Today is a free download without charge Download

Tarja - Victim Of Ritual [2013, Symphonic Metal, HDCamRip]

Reply to topic
 
Author
Message

Omen ®

Longevity: 8 years 4 months

Posts: 181087

Торрент-статистика

Post 10-Jul-2013 21:29

[Quote]

Tarja - Victim Of Ritual
Жанр: Symphonic Metal
Продолжительность: 5mn 55s 680ms
Год выпуска: 2013
Описание: 10.07.2013
Качество: HDCamRip
Контейнер: MKV
Видео кодек: H.264
Аудио кодек: FLAC
Видео: AVC at 831 Kbps 1280 x 544 (2.353) at 25.000 fps
Аудио: FLAC at 961 Kbps 2 channels, 44.1 KHz

Отчёт MediaInfo / BDInfo

Format : MatroskaFile size : 76.1 MiBDuration : 5mn 55sOverall bit rate : 1 794 KbpsEncoded date : UTC 2013-07-10 15:48:21Writing application : mkvmerge v5.2.0 ('I can't explain') built on Dec 18 2011 18:12:03Writing library : libebml v1.2.3 + libmatroska v1.3.0
VideoID : 1Format : AVCFormat/Info : Advanced Video CodecFormat profile : [email protected] settings, CABAC : YesFormat settings, ReFrames : 5 framesCodec ID : avc1Codec ID/Info : Advanced Video CodingDuration : 5mn 55sBit rate mode : VariableBit rate : 831 KbpsMaximum bit rate : 2 201 KbpsWidth : 1 280 pixelsHeight : 544 pixelsDisplay aspect ratio : 2.35:1Frame rate mode : ConstantFrame rate : 25.000 fpsColor space : YUVChroma subsampling : 4:2:0Bit depth : 8 bitsScan type : ProgressiveBits/(Pixel*Frame) : 0.048Stream size : 35.2 MiB (81%)Title : Imported with GPAC 0.4.6-DEV (build 1)Writing library : x264 core 92 r1510 33d382aEncoding settings : cabac=1 / ref=5 / deblock=1:-1:-1 / analyse=0x3:0x133 / me=umh / subme=7 / psy=1 / psy_rd=1.00:0.00 / mixed_ref=1 / me_range=16 / chroma_me=1 / trellis=2 / 8x8dct=1 / cqm=0 / deadzone=21,11 / fast_pskip=0 / chroma_qp_offset=-2 / threads=3 / sliced_threads=0 / nr=0 / decimate=1 / interlaced=0 / constrained_intra=0 / bframes=3 / b_pyramid=2 / b_adapt=1 / b_bias=0 / direct=1 / wpredb=1 / wpredp=2 / keyint=250 / keyint_min=25 / scenecut=40 / intra_refresh=0 / rc=cqp / mbtree=0 / qp=23 / ip_ratio=1.40 / pb_ratio=1.30 / aq=0Encoded date : UTC 2013-07-09 15:44:48Tagged date : UTC 2013-07-09 15:44:49
AudioFormat : FLACFormat/Info : Free Lossless Audio CodecDuration : 5mn 55sBit rate mode : VariableBit rate : 961 KbpsChannel(s) : 2 channelsSampling rate : 44.1 KHzBit depth : 16 bitsStream size : 40.7 MiB (100%)Writing library : libFLAC 20080709 (UTC 2008-07-09)

Скриншоты

Other forum [Profile] [PM]
Display posts from previous:    
Reply to topic

The time now is: Today 01:28

All times are GMT + 3 Hours



You cannot post new topics in this forum
You cannot reply to topics in this forum
You cannot edit your posts in this forum
You cannot delete your posts in this forum
You cannot vote in polls in this forum
You cannot attach files in this forum
You cannot download files in this forum