Today is a free download without charge Download

Ренегат / Renegade (Энцо Барбони) (Комедия, Приключения 1987) DVDRip [H.264]

Reply to topic
 
Author
Message

Omen ®

Longevity: 8 years 11 months

Posts: 181086

Торрент-статистика

Post 10-Jul-2013 14:22

[Quote]

Ренегат / Renegade - Год выпуска: 1987
Производство: Италия, Paloma Films
Жанр: Комедия, Приключения-Описание фильма:
Неунывающий забияка и мошенник Люк, уступая просьбе находящегося в тюрьме закадычного друга Лося, соглашается опекать его сына — несовершеннолетнего Мэтта. Вот почему Люк и Мэтт приезжают в богом забытое место, где находятся купленные Лосем земля и дом и где по всей округе почти безраздельно правит всесильная адвокатская контора Лоусона. Разница в возрасте не мешает Люку и Мэтту принять брошенный злодеем Лоусоном вызов…-Режиссер: Энцо Барбони
Актеры: Теренс Хилл, Роберт Вон, Росс Хилл, Норман Боулер, Дональд Ходсон, Беатрис Пальме, Лиза Энн Рубин, Луиза Манери, Валерия Сабел, Коул С. МакКэй-Продолжительность: 01:29:19
Качество видео: DVDRip
Контейнер: МKV
Перевод: Многоголосый закадровый, Авторский одноголосый закадровый (Алексей Михалёв)
-Видеокодек: MPEG-4 AVC/H.264
Битрейт видео: ~3122 kbps
Размер кадра: 656x576 / 932x576 (1,62:1)
Параметры аудио:
Аудио#1: AC3 2.0, 48 KHz, 192 kbps - Профессиональный, многоголосый
Аудио#2: AC3 2.0, 48 KHz, 192 kbps - А. Михалев
Аудио#3: AC3 2.0, 48 KHz, 384 kbps - Английский-Сэмпл Скачать

MediaInfo:

Общее
Уникальный идентификатор : 204706834976162789902798431168067999332 (0x9A011A324EBDE30E89A266CE95C31664)
Полное имя : C:\Users\я\Videos\Renegat.1987.x264.DVDRip-AVC.mkv
Формат : Matroska
Версия формата : Version 2
Размер файла : 2,43 Гбайт
Продолжительность : 1 ч. 29 м.
Общий поток : 3892 Кбит/сек
Дата кодирования : UTC 2013-06-22 18:55:10
Программа кодирования : mkvmerge v4.4.0 ('Die Wiederkehr') сборка от Dec 25 2010 23:32:50
Библиотека кодирования : libebml v1.0.0 + libmatroska v1.0.0
Видео
Идентификатор : 1
Формат : AVC
Формат/Информация : Advanced Video Codec
Профиль формата : [url=mailto:[email protected]][email protected][/url]
Параметр CABAC формата : Да
Параметр ReFrames формата : 8 кадров
Идентификатор кодека : V_MPEG4/ISO/AVC
Продолжительность : 1 ч. 29 м.
Битрейт : 3122 Кбит/сек
Ширина : 656 пикселей
Высота : 576 пикселей
Соотношение сторон : 1,620
Режим частоты кадров : Постоянный
Частота кадров : 25,000 кадров/сек
Цветовое пространство : YUV
Субдискретизация насыщенности : 4:2:0
Битовая глубина : 8 бит
Тип развёртки : Прогрессивная
Бит/(Пиксели*Кадры) : 0.330
Размер потока : 1,90 Гбайт (78%)
Библиотека кодирования : x264 core 112 r1834 a51816a
Настройки программы : cabac=1 / ref=8 / deblock=1:-1:-1 / analyse=0x3:0x133 / me=umh / subme=10 / psy=1 / psy_rd=1.00:0.10 / mixed_ref=1 / me_range=16 / chroma_me=1 / trellis=2 / 8x8dct=1 / cqm=0 / deadzone=21,11 / fast_pskip=1 / chroma_qp_offset=-3 / threads=6 / sliced_threads=0 / nr=0 / decimate=1 / interlaced=0 / constrained_intra=0 / bframes=7 / b_pyramid=2 / b_adapt=2 / b_bias=0 / direct=3 / weightb=1 / open_gop=0 / weightp=1 / keyint=250 / keyint_min=25 / scenecut=40 / intra_refresh=0 / rc_lookahead=40 / rc=2pass / mbtree=1 / bitrate=3122 / ratetol=1.0 / qcomp=0.60 / qpmin=10 / qpmax=51 / qpstep=4 / cplxblur=20.0 / qblur=0.5 / vbv_maxrate=17500 / vbv_bufsize=14000 / ip_ratio=1.40 / aq=1:1.00 / nal_hrd=none
Default : Да
Forced : Нет
Аудио #1
Идентификатор : 2
Формат : AC-3
Формат/Информация : Audio Coding 3
Профиль формата : Dolby Digital
Расширение режима : CM (complete main)
Параметр Endianness формата : Big
Идентификатор кодека : A_AC3
Продолжительность : 1 ч. 29 м.
Вид битрейта : Постоянный
Битрейт : 192 Кбит/сек
Каналы : 2 канала
Расположение каналов : Front: L R
Частота : 48,0 КГц
Битовая глубина : 16 бит
Метод сжатия : С потерями
Размер потока : 123 Мбайт (5%)
Default : Да
Forced : Нет
Аудио #2
Идентификатор : 3
Формат : AC-3
Формат/Информация : Audio Coding 3
Профиль формата : Dolby Digital
Расширение режима : CM (complete main)
Параметр Endianness формата : Big
Идентификатор кодека : A_AC3
Продолжительность : 1 ч. 29 м.
Вид битрейта : Постоянный
Битрейт : 192 Кбит/сек
Каналы : 2 канала
Расположение каналов : Front: L R
Частота : 48,0 КГц
Битовая глубина : 16 бит
Метод сжатия : С потерями
Размер потока : 123 Мбайт (5%)
Default : Нет
Forced : Нет
Аудио #3
Идентификатор : 4
Формат : AC-3
Формат/Информация : Audio Coding 3
Расширение режима : CM (complete main)
Параметр Endianness формата : Big
Идентификатор кодека : A_AC3
Продолжительность : 1 ч. 29 м.
Вид битрейта : Постоянный
Битрейт : 384 Кбит/сек
Каналы : 2 канала
Расположение каналов : Front: L R
Частота : 48,0 КГц
Битовая глубина : 16 бит
Метод сжатия : С потерями
Размер потока : 245 Мбайт (10%)
Default : Нет
Forced : Нет
Скриншоты:
           
Other forum [Profile] [PM]
Display posts from previous:    
Reply to topic

The time now is: Today 11:33

All times are GMT + 3 Hours



You cannot post new topics in this forum
You cannot reply to topics in this forum
You cannot edit your posts in this forum
You cannot delete your posts in this forum
You cannot vote in polls in this forum
You cannot attach files in this forum
You cannot download files in this forum