Today is a free download without charge Download

Шоу гёлз / Стриптизёрши / Showgirls (Пол Верховен) (Драма, Эротика, 1995) [1080p]BDRemux

Reply to topic
 
Author
Message

Omen ®

Longevity: 7 years

Posts: 181090

Торрент-статистика

Post 28-Aug-2011 23:15

[Quote]

Шоу гёлз / Стриптизёрши / Showgirls (1995)-
Русское название: Шоугёлз(Стриптизёрши)
Оригинальное название: Showgirls
Год выпуска: 1995
Жанр: Драма, Эротика
Режиссер: Пол Верховен
Актеры: Элизабет Беркли, Кайл МакЛоклен, Джина Гершон, Гленн Пламмер, Роберт Дави, Алан Рачинс, Джина Равера, Лин Туччи, Грег Трэвис, Аль Руссо-Описание фильма:
Молодая длинноногая танцовщица Номи отчаянно пытается добиться успеха в Лас-Вегасе и проникнуть в блистающий мир ярких огней, блеска и света шоу — сцены. Чтобы удержаться «на плаву», она соглашается на единственно возможную работу — стриптиз, пока ей не удается вытянуть свой счастливый билет — познакомиться с королевой сцены Лас-Вегаса Кристал.
Используя свое влияние, Кристал устраивает Номи в свое шоу и вводит ее в истинный мир шоу-бизнеса Лас-Вегаса — мир случая, предательства и интриг, в котором сексуальность можно использовать как власть.
-Продолжительность: 02:11:22
Качество видео: BDRemux
Перевод: Многоголосый, Дублированный, Одноголосый
Субтитры: нет-Бюджет: $45 000 000
Премьера в мире: 22 сентября 1995- -Видеокодек: V_MPEG-4/ISO/AVC
Аудиокодек: DTS, AC-3
Видео: 1920x1080, 33,5 Mbps(1080p, 23.976 fps, 16:9, High @L4.1)
Аудио1: DTS, 1510 Kbps, 48.0 KHz, 24 bits, 6 ch - Многоголосый закадровый
Аудио2: AC-3, 448 Kbps, 48.0 KГц, 16 бит, 6 ch - Русский дублированный
Аудио3: AC-3, 640 Kbps, 48.0 KГц, 16 бит, 6 ch - Одноголосый закадровый-

MediaInfo

File size : 33.8 GiB
Duration : 2h 11mn
Overall bit rate : 36.8 Mbps
Encoded date : UTC 2011-08-27 18:54:53
Writing application : mkvmerge v4.9.1 ('Ich will') сборка от Jul 11 2011 23:53:15
Writing library : libebml v1.2.1 + libmatroska v1.1.1
Video #1
ID : 1
Format : AVC
Format/Info : Advanced Video Codec
Format profile : [email protected]
Format settings, CABAC : Yes
Format settings, ReFrames : 4 frames
Muxing mode : Container [email protected]
Codec ID : V_MPEG4/ISO/AVC
Duration : 2h 11mn
Bit rate : 33.5 Mbps
Width : 1 920 pixels
Height : 1 080 pixels
Display aspect ratio : 16:9
Frame rate : 23.976 fps
Color space : YUV
Chroma subsampling : 4:2:0
Bit depth : 8 bits
Scan type : Progressive
Bits/(Pixel*Frame) : 0.674
Stream size : 30.7 GiB (91%)
Color primaries : BT.709-5, BT.1361, IEC 61966-2-4, SMPTE RP177
Transfer characteristics : BT.709-5, BT.1361
Matrix coefficients : BT.709-5, BT.1361, IEC 61966-2-4 709, SMPTE RP177
Audio #2
ID : 2
Format : DTS
Format/Info : Digital Theater Systems
Codec ID : A_DTS
Duration : 2h 11mn
Bit rate mode : Constant
Bit rate : 1 510 Kbps
Channel(s) : 6 channels
Channel positions : Front: L C R, Side: L R, LFE
Sampling rate : 48.0 KHz
Bit depth : 24 bits
Stream size : 1.39 GiB (4%)
Title : 3/2+1
Language : Russian
Audio #3
ID : 3
Format : AC-3
Format/Info : Audio Coding 3
Mode extension : CM (complete main)
Codec ID : A_AC3
Duration : 2h 11mn
Bit rate mode : Constant
Bit rate : 448 Kbps
Channel(s) : 6 channels
Channel positions : Front: L C R, Side: L R, LFE
Sampling rate : 48.0 KHz
Bit depth : 16 bits
Stream size : 421 MiB (1%)
Title : 3/2+1
Language : Russian
Audio #4
ID : 4
Format : AC-3
Format/Info : Audio Coding 3
Mode extension : CM (complete main)
Codec ID : A_AC3
Duration : 2h 11mn
Bit rate mode : Constant
Bit rate : 640 Kbps
Channel(s) : 6 channels
Channel positions : Front: L C R, Side: L R, LFE
Sampling rate : 48.0 KHz
Bit depth : 16 bits
Stream size : 601 MiB (2%)
Title : 3/2+1
Language : Russian
--Скриншоты:
       
-

Еще скриншоты

   
     


Last edited by Omen on 2011-08-28 23:17; edited 1 time in total
Other forum [Profile] [PM]

RUGUI

Gender:

Longevity: 8 years 7 months

Posts: 451

Торрент-статистика

Post 29-Aug-2011 08:56 (after 9 hours)

[Quote]

Хороший фильм :)
Other forum [Profile] [PM]
Display posts from previous:    
Reply to topic

The time now is: Today 10:35

All times are GMT + 3 Hours



You cannot post new topics in this forum
You cannot reply to topics in this forum
You cannot edit your posts in this forum
You cannot delete your posts in this forum
You cannot vote in polls in this forum
You cannot attach files in this forum
You cannot download files in this forum