Today is a free download without charge Download

John Fogerty - The El Rey Theatre [2013, Rock, HDTV 1080i]

Reply to topic
 
Author
Message

Omen ®

Longevity: 8 years 4 months

Posts: 181087

Торрент-статистика

Post 10-Jul-2013 09:16

[Quote]

John Fogerty
• Live At The El Rey Theatre •


Жанр: Rock
Продолжительность: 02:00:23
Год выпуска: 2013
The CCR singer’s 68th birthday bash!
Los Angeles, CA
May 28, 2013

Участники

John Fogerty - guitar/vocals
Shane Fogerty - guitar
Tyler Fogerty - guitar
Kenny Aronoff - drums
David Santos - bass
James Intveld - guitar
Bob Malone - keyboards
David George - guitar

Треклист

01. Concert promo
02. Intro
03. Video clip (fragment)
04. Fortunate Son
05. Green River
06. Lookin' Out My Back Door
07. Who'll Stop The Rain
08. Born On The Bayou
09. Ramble Tamble
10. Midnight Special
11. Lodi
12. Happy Birthday
13. Mystic Highway
14. Somebody Help Me
15. Blue Moon Nights
16. Train Of Fools
17. Hot Rod Heart
18. Joy Of My Life
19. Almost Saturday Night
20. Heard It Through The Grapevine
21. Keep On Chooglin'
22. Have You Ever Seen The Rain
23. Oh, Pretty Woman
24. Centerfield
25. The Old Man Down The Road
26. Bad Moon Rising
27. Proud Mary
28. credits
29. "Wrote A Song For Everyone" commercial
Качество: HDTV 1080i
Контейнер: TS
Видео кодек: H.264
Аудио кодек: AC3
Видео: MPEG4 Video (H264) 1920x1080 29.97fps 14.0 Mbps
Аудио: Dolby AC3 48000Hz 6ch 384kbps

Отчёт MediaInfo / BDInfo

GeneralID : 1 (0x1)Complete name : E:\John Fogerty - The El Rey Theatre.tsFormat : MPEG-TSFile size : 12.4 GiBDuration : 2h 0mnOverall bit rate mode : VariableOverall bit rate : 14.8 Mbps
VideoID : 6081 (0x17C1)Menu ID : 1 (0x1)Format : AVCFormat/Info : Advanced Video CodecFormat profile : [email protected] settings, CABAC : YesFormat settings, ReFrames : 3 framesCodec ID : 27Duration : 2h 0mnBit rate mode : ConstantBit rate : 14.0 MbpsWidth : 1 920 pixelsHeight : 1 080 pixelsDisplay aspect ratio : 16:9Frame rate : 29.970 fpsStandard : NTSCColor space : YUVChroma subsampling : 4:2:0Bit depth : 8 bitsScan type : InterlacedBits/(Pixel*Frame) : 0.225Stream size : 11.5 GiB (92%)Color primaries : BT.709Transfer characteristics : BT.709Matrix coefficients : BT.709
AudioID : 6083 (0x17C3)Menu ID : 1 (0x1)Format : AC-3Format/Info : Audio Coding 3Mode extension : CM (complete main)Format settings, Endianness : BigCodec ID : 129Duration : 2h 0mnBit rate mode : ConstantBit rate : 384 KbpsChannel(s) : 6 channelsChannel positions : Front: L C R, Side: L R, LFESampling rate : 48.0 KHzBit depth : 16 bitsCompression mode : LossyDelay relative to video : 30msStream size : 331 MiB (3%)Language : English
Other forum [Profile] [PM]
Display posts from previous:    
Reply to topic

The time now is: Today 16:54

All times are GMT + 3 Hours



You cannot post new topics in this forum
You cannot reply to topics in this forum
You cannot edit your posts in this forum
You cannot delete your posts in this forum
You cannot vote in polls in this forum
You cannot attach files in this forum
You cannot download files in this forum