Today is a free download without charge Download

Запрещенная реальность (Константин Максимов) [2009 г., фантастика, боевик, BDRip]

Reply to topic
 
Author
Message

sassad ®

Gender:

Longevity: 9 years 8 months

Posts: 1214

Location: Галич

Торрент-статистика

Post 28-Aug-2011 21:51

[Quote]

Запрещенная реальность--
Год выпуска: 2009
Страна: Россия
Жанр: фантастика, боевик
Продолжительность: 90 мин.
Перевод: Не требуется-Режиссер: Константин Максимов
Продюссер: Юлия Орлова, Василий Головачев
Сценарий: Василий Головачев, Константин Максимов
Бюджет: $1 877 112
Премьера в мире: 8 октября 2009-

В ролях: Игорь Петренко, Александр Балуев, Любовь Толкалина, Владимир Вдовиченков, Лев Прыгунов, Андрей Чубченко, Алексей Дмитриев, Ольга Ковалева, Владимир Панчик, Валерий Гурьев-Описание: Он живет в одном мире, а во сне видит другой. Он встречает одну женщину, но узнает в ней другую. Он — Матвей Соболев, бывший агент военной контрразведки, но ему предстоит стать Воином Круга. Потому что равновесие между мирами нарушено. И Конкере уже нашел себе носителя...-Качество: BDRip(AVC)
Формат: MKV
Аудио кодек: AC3
Видео: MPEG-4 AVC, 2616 Кбит/с, 1024x436
Аудио: AC3, 6 ch, 448 Кбит/с
--

Мedia info

E:\bq82SS.mkv
General
Unique ID : 197856922117325851552253023904692610522 (0x94D9DB6AF8B2498B9628FBF88162A5DA)
Complete name : E:\bq82SS.mkv
Format : Matroska
Format version : Version 2
File size : 18.0 MiB
Duration : 59s 669ms
Overall bit rate : 2 537 Kbps
Movie name : Zapreshchennaya realnost (2009) - fanatus (kinozal.tv)
Encoded date : UTC 2011-08-28 05:50:55
Writing application : mkvmerge v3.4.0 ('Rapunzel') сборка от May 15 2010 09:38:20
Writing library : libebml v0.8.0 + libmatroska v0.9.0
Video #1
ID : 1
Format : AVC
Format/Info : Advanced Video Codec
Format profile : [email protected]
Format settings, CABAC : Yes
Format settings, ReFrames : 8 frames
Codec ID : V_MPEG4/ISO/AVC
Duration : 59s 685ms
Bit rate : 2 039 Kbps
Width : 1 024 pixels
Height : 436 pixels
Display aspect ratio : 2.35:1
Frame rate : 23.976 fps
Color space : YUV
Chroma subsampling : 4:2:0
Bit depth : 8 bits
Scan type : Progressive
Bits/(Pixel*Frame) : 0.190
Stream size : 14.5 MiB (80%)
Title : Zapreshchennaya realnost (2009) - fanatus
Language : Russian
Audio #2
ID : 2
Format : AC-3
Format/Info : Audio Coding 3
Mode extension : CM (complete main)
Codec ID : A_AC3
Duration : 59s 669ms
Bit rate mode : Constant
Bit rate : 448 Kbps
Channel(s) : 6 channels
Channel positions : Front: L C R, Side: L R, LFE
Sampling rate : 48.0 KHz
Bit depth : 16 bits
Compression mode : Lossy
Delay relative to video : 21ms
Stream size : 3.19 MiB (18%)
Title : Original
Language : Russian
--

Скриншоты

     
-

_________________


Last edited by sassad on 2011-08-29 00:33; edited 2 times in total
Other forum [Profile] [PM]

Omen

Longevity: 8 years 1 month

Posts: 181087

Торрент-статистика

Post 28-Aug-2011 23:25 (after 1 hour 33 minutes)

[Quote]

sassad
Ссылка на сторонний ресурс в названии т.файла
Other forum [Profile] [PM]
Display posts from previous:    
Reply to topic

The time now is: Today 10:51

All times are GMT + 3 Hours



You cannot post new topics in this forum
You cannot reply to topics in this forum
You cannot edit your posts in this forum
You cannot delete your posts in this forum
You cannot vote in polls in this forum
You cannot attach files in this forum
You cannot download files in this forum