Today is a free download without charge Download

Любовь и голуби (Владимир Меньшов) (Мелодрама, Комедия 1984) BDRip [H.264/1080p]

Reply to topic
 
Author
Message

Omen ®

Longevity: 8 years 10 months

Posts: 181086

Торрент-статистика

Post 09-Jul-2013 20:34

[Quote]

Любовь и голуби - Год выпуска: 1984
Производство: СССР, Мосфильм
Жанр: Мелодрама, Комедия--Описание фильма:
Ликвидируя неисправность лебедки, Василий Кузякин получил травму и путевку на юг. Встретил роковую женщину Раису Захаровну и… вернулся Вася с курорта не к себе в деревню, а в дом Раисы Захаровны. Началась для него новая жизнь, в которой было много непонятного и интересного, но не было дома, где остались Надя, дети и голуби…--Режиссер: Владимир Меньшов
Актеры: Александр Михайлов, Нина Дорошина, Людмила Гурченко, Сергей Юрский, Наталья Тенякова, Янина Лисовская, Игорь Лях, Лада Сизоненко, Владимир Меньшов...--Продолжительность: 01:44:44
Качество видео: BDRip1080p (Blu-ray 1080p)
Формат: MKV--
Премьера (мир): 7 января 1985
Релиз на Blu-Ray : 15 декабря 2010, «Парадиз Медиа»
Релиз на DVD : 11 января 2011, «Парадиз Медиа»
Видеокодек: MPEG-4 AVC/H.264
Битрейт видео: ~10,6 Мбит/сек
Размер кадра: 1920x1080
Аудио 1: DTS (6 ch), 1536 kbps
Аудио 2: АС3 (6 ch), 448 kbps
Аудио 3: АС3 (2 ch), 224 kbps--Сэмпл: Ссылка

MediaInfo:

General
Unique ID : 196682601253946501551429040544439605291 (0x93F7B0EDDCD25B31BD1371268EEC182B)
Complete name : E:\Раздачи\Lubov.i.golubi.1984.BDRip.1080p.mkv
Format : Matroska
Format version : Version 4 / Version 2
File size : 9.35 GiB
Duration : 1h 44mn
Overall bit rate : 12.8 Mbps
Encoded date : UTC 2013-07-07 23:34:32
Writing application : mkvmerge v6.1.0 ('Old Devil') built on Mar 2 2013 14:32:37
Writing library : libebml v1.3.0 + libmatroska v1.4.0
Video
ID : 1
Format : AVC
Format/Info : Advanced Video Codec
Format profile : [url=mailto:[email protected]][email protected][/url]
Format settings, CABAC : Yes
Format settings, ReFrames : 4 frames
Codec ID : V_MPEG4/ISO/AVC
Duration : 1h 44mn
Bit rate : 10.6 Mbps
Width : 1 920 pixels
Height : 1 080 pixels
Display aspect ratio : 16:9
Frame rate mode : Constant
Frame rate : 23.976 fps
Color space : YUV
Chroma subsampling : 4:2:0
Bit depth : 8 bits
Scan type : Progressive
Bits/(Pixel*Frame) : 0.213
Stream size : 7.57 GiB (81%)
Writing library : x264 core 130 r2273 b3065e6
Encoding settings : cabac=1 / ref=4 / deblock=1:-3:-3 / analyse=0x3:0x113 / me=umh / subme=10 / psy=1 / psy_rd=1.05:0.10 / mixed_ref=1 / me_range=32 / chroma_me=1 / trellis=2 / 8x8dct=1 / cqm=0 / deadzone=21,11 / fast_pskip=0 / chroma_qp_offset=-3 / threads=9 / lookahead_threads=1 / sliced_threads=0 / nr=0 / decimate=1 / interlaced=0 / bluray_compat=0 / constrained_intra=0 / bframes=6 / b_pyramid=2 / b_adapt=2 / b_bias=0 / direct=3 / weightb=1 / open_gop=0 / weightp=2 / keyint=250 / keyint_min=25 / scenecut=40 / intra_refresh=0 / rc_lookahead=40 / rc=2pass / mbtree=1 / bitrate=10600 / ratetol=1.0 / qcomp=0.60 / qpmin=10 / qpmax=51 / qpstep=4 / cplxblur=20.0 / qblur=0.5 / vbv_maxrate=50000 / vbv_bufsize=50000 / nal_hrd=none / ip_ratio=1.40 / aq=1:0.80
Language : Russian
Default : Yes
Forced : No
Audio #1
ID : 2
Format : DTS
Format/Info : Digital Theater Systems
Mode : 16
Format settings, Endianness : Big
Codec ID : A_DTS
Duration : 1h 44mn
Bit rate mode : Constant
Bit rate : 1 509 Kbps
Channel(s) : 6 channels
Channel positions : Front: L C R, Side: L R, LFE
Sampling rate : 48.0 KHz
Bit depth : 24 bits
Compression mode : Lossy
Stream size : 1.10 GiB (12%)
Language : Russian
Default : Yes
Forced : No
Audio #2
ID : 3
Format : AC-3
Format/Info : Audio Coding 3
Mode extension : CM (complete main)
Format settings, Endianness : Big
Codec ID : A_AC3
Duration : 1h 44mn
Bit rate mode : Constant
Bit rate : 448 Kbps
Channel(s) : 6 channels
Channel positions : Front: L C R, Side: L R, LFE
Sampling rate : 48.0 KHz
Bit depth : 16 bits
Compression mode : Lossy
Stream size : 336 MiB (4%)
Language : Russian
Default : No
Forced : No
Audio #3
ID : 4
Format : AC-3
Format/Info : Audio Coding 3
Mode extension : CM (complete main)
Format settings, Endianness : Big
Codec ID : A_AC3
Duration : 1h 44mn
Bit rate mode : Constant
Bit rate : 224 Kbps
Channel(s) : 1 channel
Channel positions : Front: C
Sampling rate : 48.0 KHz
Bit depth : 16 bits
Compression mode : Lossy
Stream size : 168 MiB (2%)
Language : Russian
Default : No
Forced : No
Text
ID : 5
Format : UTF-8
Codec ID : S_TEXT/UTF8
Codec ID/Info : UTF-8 Plain Text
Language : Russian
Default : No
Forced : No
Menu
00:00:00.000 : en:00:00:00.000
00:07:08.678 : en:00:07:08.678
00:13:18.840 : en:00:13:18.840
00:17:04.982 : en:00:17:04.982
00:24:56.036 : en:00:24:56.036
00:33:11.031 : en:00:33:11.031
00:40:17.790 : en:00:40:17.790
00:47:41.317 : en:00:47:41.317
00:52:54.505 : en:00:52:54.505
00:59:58.094 : en:00:59:58.094
01:07:48.398 : en:01:07:48.398
01:17:34.483 : en:01:17:34.483
01:24:02.246 : en:01:24:02.246
01:29:57.601 : en:01:29:57.601
01:34:37.255 : en:01:34:37.255
01:40:07.210 : en:01:40:07.210
Скриншоты:
           
Other forum [Profile] [PM]
Similar theme
Forum Topic Author Torrent Replies Last Post
./templates/default/images/folder_dl.gif Обучающая и научно-популярная литература Димитрий Семеник | Наполни жизнь любовью [2010] [MP3] Omen
1 | 0

0 | 1867

6

2013-01-14 21:04
Omen Latest
./templates/default/images/folder_dl.gif Приключения и квесты Mahjong Detective: The Stolen Love / Маджонг Детектив. Похищенная Любовь [P] [RUS] (2015) Omen
2 | 0

0 | 1879

24

2015-06-08 21:00
Omen Latest
Display posts from previous:    
Reply to topic

The time now is: Today 14:07

All times are GMT + 3 Hours



You cannot post new topics in this forum
You cannot reply to topics in this forum
You cannot edit your posts in this forum
You cannot delete your posts in this forum
You cannot vote in polls in this forum
You cannot attach files in this forum
You cannot download files in this forum