Today is a free download without charge Download

Пророчество 2 / The Prophecy II (Грег Спенс) (Ужасы, Триллер, Мистика 1998) BDRip

Reply to topic
 
Author
Message

Omen ®

Longevity: 8 years 11 months

Posts: 181086

Торрент-статистика

Post 09-Jul-2013 11:22

[Quote]

Пророчество 2
The Prophecy II
- Год выпуска: 1998
Жанр: Ужасы, Триллер, Мистика
Описание фильма:
Продолжение удачного первого фильма с сохранением из прежних актеров только Кристофера Уокена в роли Гавриила. Война ангелов продолжается, но у людей появляется больше шансов, так как имеет место зачатие земной женщины (Билз) от симпатичного ангела азиатской внешности (Вонг). В результате на свет должен появиться мальчик, сын человека и ангела. Называется такое существо нефилимом и способно очень на многое. Главное, чтобы его силы были направлены к добру, а не злу. В битве против Гавриила, посланного Дьяволом предотвратить появление ребенка, победу одерживают люди с помощью добрых ангелов и не без участия самого архангела Михаила (Эрик Робертс), занимающего у Бога должность архистратига, можно сказать, главнокомандующего всеми вооруженными силами.
Режиссер: Грег Спенс
Актеры: Кристофер Уокен, Расселл Вонг, Дженнифер Билз, Бриттани Мерфи, Эрик Робертс, Гленн Дэнзиг, Стив Хитнер, Брюс Эбботт, Уильям Прэйл, Рени Виктор, Элизабет Деннехи, Дж.Дж. Херцлер, Ники Мишо, Том Таулз, Дэнни Стронг, Дэвид Лиа, Дженна Роуз, Стивен Эрнхарт, Джэйк Эберли, Джеймс Крейг, Джим Уайт, Итэн Эмбри, Стивен Рэмси, Гари Пол, Майкл Хименез, Джил Зунига, Альма Коллинз, Леонард О. Тернер, Гури Уэйнбург, Кэтрин Моррис, Майкл Рэйми, Пол Муни (II), Луис Е. Росас, Дженнифер Веллингс
Продолжительность: 01:23:27
Качество видео: BDRip
Перевод: Профессиональный (многоголосый закадровый) Premier Digital

________________________________
Видеокодек: Xvid
Битрейт видео: ~2024 kbps
Размер кадра: 704x384
Аудио: AC3, 6 ch, 48.0 khz, 448 Kbps

MI

Общее
Полное имя : Prorochestvo.2.1998.BDRip.avi
Формат : AVI
Формат/Информация : Audio Video Interleave
Размер файла : 1,45 Гбайт
Продолжительность : 1 ч. 23 м.
Общий поток : 2481 Кбит/сек
Программа кодирования : VirtualDubMod 1.5.10.3 | www.virtualdub-fr.org || (build 2550/release)
Библиотека кодирования : VirtualDubMod build 2550/release
Видео
Идентификатор : 0
Формат : MPEG-4 Visual
Профиль формата : Advanced [email protected]
Параметр BVOP формата : 1
Параметр QPel формата : Нет
Параметр GMC формата : Без точки перехода
Параметр матрицы формата : Выборочная
Идентификатор кодека : XVID
Идентификатор кодека/Подсказка : XviD
Продолжительность : 1 ч. 23 м.
Битрейт : 2024 Кбит/сек
Ширина : 704 пикс.
Высота : 384 пикс.
Соотношение сторон : 16:9
Частота кадров : 24,000 кадр/сек
Цветовое пространство : YUV
Подвыборка цветности : 4:2:0
Битовая глубина : 8 бит
Тип развёртки : Прогрессивная
Метод сжатия : С потерями
Бит/(Пиксели*Кадры) : 0.312
Размер потока : 1,18 Гбайт (82%)
Библиотека кодирования : XviD 73
Аудио
Идентификатор : 1
Формат : AC-3
Формат/Информация : Audio Coding 3
Расширение режима : CM (complete main)
Идентификатор кодека : 2000
Продолжительность : 1 ч. 23 м.
Вид битрейта : Постоянный
Битрейт : 448 Кбит/сек
Канал(ы) : 6 канала(ов)
Расположение каналов : Front: L C R, Side: L R, LFE
Частота : 48,0 КГц
Битовая глубина : 16 бит
Метод сжатия : С потерями
Размер потока : 267 Мбайт (18%)
Выравнивание : Разделение по промежуткам
Продолжительность промежутка : 42 мс. (1,00 видеокадр)
Время предзагрузки промежутка : 500 ms
Скриншоты:              
Other forum [Profile] [PM]
Display posts from previous:    
Reply to topic

The time now is: Today 08:29

All times are GMT + 3 Hours



You cannot post new topics in this forum
You cannot reply to topics in this forum
You cannot edit your posts in this forum
You cannot delete your posts in this forum
You cannot vote in polls in this forum
You cannot attach files in this forum
You cannot download files in this forum