Today is a free download without charge Download

Rammstein - Feuer frei!, Du hast (Download Festival 2013) [2013, Industrial, HDTV 1080i]

Reply to topic
 
Author
Message

Omen ®

Longevity: 8 years 4 months

Posts: 181087

Торрент-статистика

Post 08-Jul-2013 16:40

[Quote]

Rammstein - Feuer frei!, Du hast (Download Festival 2013)
Жанр: Industrial
Продолжительность: 00:07:31
Год выпуска: 2013

Feuer frei!

Качество: HDTV 1080i
Контейнер: TS
Видео кодек: H.264
Аудио кодек: AC3
Видео: MPEG4 Video (H264) 1920x1080 15.2 Mbps 25fps
Аудио: Dolby AC3 48000Hz stereo 384kbps

Du hast

Качество: HDTV 1080i
Контейнер: TS
Видео кодек: H.264
Аудио кодек: AC3
Видео: MPEG4 Video (H264) 1920x1080 17.4 Mbps 25fps
Аудио: Dolby AC3 48000Hz stereo 384kbps

Отчёт MediaInfo / BDInfo

GeneralID : 1 (0x1)Complete name : C:\torrents\Rammstein - Download festival 2013\Rammstein - Feuer frei! (Download festival 2013).tsFormat : MPEG-TSFile size : 402 MiBDuration : 3mn 25sOverall bit rate mode : VariableOverall bit rate : 16.4 Mbps
VideoID : 256 (0x100)Menu ID : 1 (0x1)Format : AVCFormat/Info : Advanced Video CodecFormat profile : [email protected] settings, CABAC : YesFormat settings, ReFrames : 4 framesFormat settings, GOP : M=4, N=12Codec ID : 27Duration : 3mn 25sBit rate : 15.2 MbpsWidth : 1 920 pixelsHeight : 1 080 pixelsDisplay aspect ratio : 16:9Frame rate : 25.000 fpsColor space : YUVChroma subsampling : 4:2:0Bit depth : 8 bitsScan type : InterlacedScan order : Top Field FirstBits/(Pixel*Frame) : 0.293Stream size : 372 MiB (93%)Color primaries : BT.709Transfer characteristics : BT.709Matrix coefficients : BT.709
AudioID : 257 (0x101)Menu ID : 1 (0x1)Format : AC-3Format/Info : Audio Coding 3Mode extension : CM (complete main)Format settings, Endianness : BigCodec ID : 129Duration : 3mn 25sBit rate mode : ConstantBit rate : 384 KbpsChannel(s) : 2 channelsChannel positions : Front: L RSampling rate : 48.0 KHzBit depth : 16 bitsCompression mode : LossyDelay relative to video : -296msStream size : 9.40 MiB (2%)
MenuID : 4096 (0x1000)Menu ID : 1 (0x1)Duration : 3mn 25sList : 256 (0x100) (AVC) / 257 (0x101) (AC-3)Service name : Service01Service provider : FFmpegService type : digital television
GeneralID : 1 (0x1)Complete name : C:\torrents\Rammstein - Download festival 2013\Rammstein - Du hast (Download festival 2013).tsFormat : MPEG-TSFile size : 548 MiBDuration : 4mn 5sOverall bit rate mode : VariableOverall bit rate : 18.7 Mbps
VideoID : 256 (0x100)Menu ID : 1 (0x1)Format : AVCFormat/Info : Advanced Video CodecFormat profile : [email protected] settings, CABAC : YesFormat settings, ReFrames : 4 framesFormat settings, GOP : M=4, N=12Codec ID : 27Duration : 4mn 5sBit rate : 17.4 MbpsWidth : 1 920 pixelsHeight : 1 080 pixelsDisplay aspect ratio : 16:9Frame rate : 25.000 fpsColor space : YUVChroma subsampling : 4:2:0Bit depth : 8 bitsScan type : InterlacedScan order : Top Field FirstBits/(Pixel*Frame) : 0.335Stream size : 510 MiB (93%)Color primaries : BT.709Transfer characteristics : BT.709Matrix coefficients : BT.709
AudioID : 257 (0x101)Menu ID : 1 (0x1)Format : AC-3Format/Info : Audio Coding 3Mode extension : CM (complete main)Format settings, Endianness : BigCodec ID : 129Duration : 4mn 5sBit rate mode : ConstantBit rate : 384 KbpsChannel(s) : 2 channelsChannel positions : Front: L RSampling rate : 48.0 KHzBit depth : 16 bitsCompression mode : LossyDelay relative to video : -296msStream size : 11.3 MiB (2%)
MenuID : 4096 (0x1000)Menu ID : 1 (0x1)Duration : 4mn 5sList : 256 (0x100) (AVC) / 257 (0x101) (AC-3)Service name : Service01Service provider : FFmpegService type : digital television

Скриншоты


За материал спасибо пользователю Hel с rammclan.ru
Other forum [Profile] [PM]
Display posts from previous:    
Reply to topic

The time now is: Today 17:14

All times are GMT + 3 Hours



You cannot post new topics in this forum
You cannot reply to topics in this forum
You cannot edit your posts in this forum
You cannot delete your posts in this forum
You cannot vote in polls in this forum
You cannot attach files in this forum
You cannot download files in this forum