Today is a free download without charge Download

Smokie - Whose Are These Boots (1990) [FLAC 2.0 24/192|image (Vinyl-Rip)]

Reply to topic
 
Author
Message

UndegraundMen ®

Longevity: 7 years 11 months

Posts: 25145

Торрент-статистика

Post 08-Jul-2013 04:40

[Quote]

Smokie - Whose Are These Boots (1990)- Год: 1990
Страна: Holland
Лейбл: Polygram
Catalog#: 843 714-1
Продолжительность: 00:47:27
Кодек: FLAC
Формат записи: 24/192
Формат раздачи: 24/192
Тип раздачи: images + .cue|(Vinyl-Rip)
Жанр: Pop Rock
Covers: format JPG,full scans-Трек лист:-A1 In The Middle Of A Lonely Dream [4:07]
A2 Heartbreak Hotel [4:20]
A3 I Feel Love [4:25]
A4 Romeo And Juliet [6:00]
A5 Every Little Kiss [4:26]
B1 Fistful Of Dollars [3:24]
B2 This Side Of Paradise [5:30]
B3 Hurting [5:27]
B4 Never Made In Heaven [4:38]
B5 Heat Of The Night [5:09]

Автор оцифровки: Иван_К
Информация:
Студийный альбом записанный с Аланом Бартоном.
http://www.discogs.com/Smokie-Whose-Are-These-Boots/release/3930535

-

яблоки:

   

Technical info:


Код класса состояния винила: NM
Устройство воспроизведения: Micro Seiki DD-7
Головка звукоснимателя: DENON DL-301II ORTOFON MCA-76
Предварительный усилитель: Транзисторный SS
АЦП: E-MU 0204
Программа-оцифровщик: Adobe Audition 6.0
Обработка: Почистил паузы.

DR:

Код:
foobar2000 1.1.8 / Dynamic Range Meter 1.1.1
log date: 2013-07-07 20:17:37
--------------------------------------------------------------------------------
Analyzed: Smokie / Whose Are These Boots
--------------------------------------------------------------------------------
DR         Peak         RMS     Duration Track
--------------------------------------------------------------------------------
DR16      -0.26 dB   -19.29 dB      4:07 01-In The Middle Of A Lonely Dream
DR16      -0.82 dB   -19.75 dB      4:20 02-Heartbreak Hotel
DR15      -2.51 dB   -20.09 dB      4:25 03-I Feel Love
DR15      -3.28 dB   -21.41 dB      6:00 04-Romeo And Juliet
DR15      -2.43 dB   -20.08 dB      4:26 05-Every Little Kiss
DR16      -0.59 dB   -19.10 dB      3:24 06-Fistful Of Dollars
DR16      -1.80 dB   -20.77 dB      5:30 07-This Side Of Paradise
DR16      -1.34 dB   -20.25 dB      5:27 08-Hurting
DR15      -1.93 dB   -19.99 dB      4:38 09-Never Made In Heaven
DR15      -2.21 dB   -20.44 dB      5:09 10-Heat Of The Night
--------------------------------------------------------------------------------
Number of tracks:  10
Official DR value: DR16
Samplerate:        192000 Hz
Channels:          2
Bits per sample:   24
Bitrate:           5993 kbps
Codec:             FLAC
================================================================================

MediaInfo:

Код:
Общее
Полное имя                       : D:\Інтернет\Rock\Smokie - Whose Are These Boots ( 1990)\Smokie 1990 Whose Are These Boots side 1.flac
Формат                           : FLAC
Формат/Информация                : Free Lossless Audio Codec
Размер файла                     : 993 Мбайт
Продолжительность                : 23 м.
Общий поток                      : 5954 Кбит/сек
Аудио
Формат                           : FLAC
Формат/Информация                : Free Lossless Audio Codec
Продолжительность                : 23 м.
Вид битрейта                     : Переменный
Битрейт                          : 5954 Кбит/сек
Канал(ы)                         : 2 канала(ов)
Частота                          : 192 КГц
Битовая глубина                  : 24 бит
Размер потока                    : 993 Мбайт (100%)
Библиотека кодирования           : libFLAC 1.2.1 (UTC 2007-09-17)
Общее
Полное имя                       : D:\Інтернет\Rock\Smokie - Whose Are These Boots ( 1990)\Smokie 1990 Whose Are These Boots side 2.flac
Формат                           : FLAC
Формат/Информация                : Free Lossless Audio Codec
Размер файла                     : 1,01 Гбайт
Продолжительность                : 24 м.
Общий поток                      : 5993 Кбит/сек
Аудио
Формат                           : FLAC
Формат/Информация                : Free Lossless Audio Codec
Продолжительность                : 24 м.
Вид битрейта                     : Переменный
Битрейт                          : 5993 Кбит/сек
Канал(ы)                         : 2 канала(ов)
Частота                          : 192 КГц
Битовая глубина                  : 24 бит
Размер потока                    : 1,01 Гбайт (100%)
Библиотека кодирования           : libFLAC 1.2.1 (UTC 2007-09-17)

Спектр, АЧХ, уровень записи:

   

-
-

Full Album YouTube:

-Время раздачи: с 16:00 до 01:00 + в другое время (по возможности)
Other forum [Profile] [PM]
Display posts from previous:    
Reply to topic

The time now is: Today 00:11

All times are GMT + 3 Hours



You cannot post new topics in this forum
You cannot reply to topics in this forum
You cannot edit your posts in this forum
You cannot delete your posts in this forum
You cannot vote in polls in this forum
You cannot attach files in this forum
You cannot download files in this forum