Today is a free download without charge Download

VA - Вокруг Света (1-5 серия). Эстрадно-танцевальный концерт (1959) обновляемая [FLAC 1.0 24/48 |image (Vinyl-Rip)]

Reply to topic
 
Author
Message

UndegraundMen ®

Longevity: 7 years 11 months

Posts: 25145

Торрент-статистика

Post 08-Jul-2013 04:40

[Quote]

Various Artists - Вокруг Света (1-5 серия). Эстрадно-танцевальный концерт (1959)
Апрелевский ЗГП
-
Год: 1959
Жанр: Oldies, Retro
Продолжительность: 02:28:33
Кодек: FLAC
Битрейт: 24/48
Тип рипа: image+.cue
(1 серия) #Д 5378-79
Трек лист:
01.А1 Норвегия. Аморадо (А. Ведо) - Ховик - Квартет
02.А2 Исландия. Симби - Рыбак (X. Мортенс) - Автор
03.А3 США. Приятная прогулка (Спир) - Лес Пол
04.А4 Бразилия. Сухая земля (А. Багос) - Жоржи Гоуларт
05.А5 Куба. О красавец Гуахиро - Мения Мартинес
06.В1 Чехословакия: Уж так получилось (С. Прохазка) - Рудольф Кортез
07.В2 Румыния. На саночках (Е. Тегер) - Инстр. ансамбль
08.В3 ГДР. Тип - топ (Г. Фулиш) - Оркестр
09.В4 Франция. Мой сын (А. Итье) - Иветт Жиро
10.В5 Австрия. Фокстрот из к/ф "Золотая симфония" (Л. Олиас) - Оркестр
Время звучания: 00:29:00

MediaInfo:

Код:
General
Complete name                            : E:\NNM\VA_Вокруг Света. Эстрадный Концерт_1959\VA_Вокруг Света (1 серия)\ВокрСв_1Сер.flac
Format                                   : FLAC
Format/Info                              : Free Lossless Audio Codec
File size                                : 152 MiB
Duration                                 : 29mn 0s
Overall bit rate mode                    : Variable
Overall bit rate                         : 734 Kbps
Cover                                    : Yes
Cover type                               : Cover (front)
Cover MIME                               : image/jpg
Audio
Format                                   : FLAC
Format/Info                              : Free Lossless Audio Codec
Duration                                 : 29mn 0s
Bit rate mode                            : Variable
Bit rate                                 : 733 Kbps
Channel(s)                               : 1 channel
Sampling rate                            : 48.0 KHz
Bit depth                                : 24 bits
Stream size                              : 152 MiB (100%)
Writing library                          : libFLAC 1.2.1 (UTC 2007-09-17)

Продолжение треклиста:

(2 серия) # Д 5570-71

А1 Бразилия. Воспоминание о Баие (К. Дориваль) - Нора Нэй
А2 США. Мандолина (Фред) - Лес Пол
А3 Австрия. На льду (Л. Олиас) - оркестр
А4 Финляндия. Самба-москито - инстр квинтет
А5 Франция. Мари Визон (М. Эйраль) - Жаклин Франсуа
А6 Польша. Кто быстрее? (Сандор) - Е. Возняк (ксилофон)
В1 Чехословакия. Так начинается любовь (Я. Мангл) - Иветта Симонова
В2 Болгария. Ночь сказок (И. Цанков) - оркестр
В3 Румыния. Мелодия воспоминания (Р. Рванэ) - Мои Скопи
В4 ГДР. Эвелин (А. Кол) - Диэ Паранас
В5 СССР. Импровизация на тему песни И. Дунаевского из к/ф "Весна" (Г. Гаранян) - А. Голов (кларнет)
Время звучания: 00:28:55

MediaInfo:

Код:
General
Complete name                            : C:\Documents and Settings\Евгений\Рабочий стол\Новая папка (7)\Вокруг Света (2 серия)\ВокрСв_2Сер.flac
Format                                   : FLAC
Format/Info                              : Free Lossless Audio Codec
File size                                : 163 MiB
Duration                                 : 28mn 54s
Overall bit rate mode                    : Variable
Overall bit rate                         : 788 Kbps
Audio
Format                                   : FLAC
Format/Info                              : Free Lossless Audio Codec
Duration                                 : 28mn 54s
Bit rate mode                            : Variable
Bit rate                                 : 788 Kbps
Channel(s)                               : 1 channel
Sampling rate                            : 48.0 KHz
Bit depth                                : 24 bits
Stream size                              : 163 MiB (100%)
Writing library                          : libFLAC 1.2.1 (UTC 2007-09-17)

(3 серия) # Д 5636-37

А1 СССР/ Играй, музыкант (В Людвиковский) - оркестр
А2 Чехословакия. Скоро будет шесть (М. Духач) - Рудольф Кортез
А3 ГДР. Любимые мелодии (группа авторов) - оркестр
А4 Франция. Что будет, то будет (Э. Ливингстон) - Жаклин Франсуа
А5 Австрия. На ледяной эстраде (Л. Олиас) - оркестр
В1 Польша. С тобой буду танцевать (А. Колл) - оркестр
В2 Италия. Летаю (Доменико Модуньо) - автор
В3 Румыния. Красивая мечта (Н. Деметриад) - оркестр
В4 Бразилия. Воспоминание (К. Дориваль) - Долорес Дуран
В5 США. Веселая песенка (Мерее) - Дорис Дей и Фрэнки Лейн
Время звучания: 00:30:08

MediaInfo:

Код:
General
Complete name                            : C:\Documents and Settings\Евгений\Рабочий стол\Новая папка (7)\Вокруг Света (3 серия)\ВокрСв_3Сер.flac
Format                                   : FLAC
Format/Info                              : Free Lossless Audio Codec
File size                                : 170 MiB
Duration                                 : 30mn 7s
Overall bit rate mode                    : Variable
Overall bit rate                         : 789 Kbps
Audio
Format                                   : FLAC
Format/Info                              : Free Lossless Audio Codec
Duration                                 : 30mn 7s
Bit rate mode                            : Variable
Bit rate                                 : 789 Kbps
Channel(s)                               : 1 channel
Sampling rate                            : 48.0 KHz
Bit depth                                : 24 bits
Stream size                              : 170 MiB (100%)
Writing library                          : libFLAC 1.2.1 (UTC 2007-09-17)

(4 серия) # Д 5712-13

А1 Франция. Иду к тебе (Г. Сальвадор) - Жаклин Франсуа
А2 Италия. В 10 часов утра (Сарра) - Клаудио Вилла
А3 Англия. Потанцуем (Стар) - Ланни Дей (электроорган)
А4 Польша. С тобой вдвоем (В. Шпильман) - Ольгерд Бучек
А5 СССР. Однажды вечером (Э. Ванн) - оркестр
В1 Чехословакия В новом доме (Л. Корбарж) - Рудольф Кортез
В2 Румыния. В окно светит луна (Э, Ионеску) - Аида Мога
В3 ГДР. Один за другим (Г. Зеегер, Эрдман, 3. Мей) - оркестр
В4 ФРГ. Городок у моря (Гландо) - Бобби Франко
В5 США. Кенгуру (Н. Джимбл. Л. Пол) - Лес Пол
Время звучания: 00:30:47

MediaInfo:

Код:
General
Complete name                            : E:\NNM\VA_Вокруг Света. Эстрадный Концерт_1959\Вокруг Света (4 серия)\ВокрСв_4Сер.flac
Format                                   : FLAC
Format/Info                              : Free Lossless Audio Codec
File size                                : 173 MiB
Duration                                 : 30mn 46s
Overall bit rate mode                    : Variable
Overall bit rate                         : 785 Kbps
Cover                                    : Yes
Cover type                               : Cover (front)
Cover MIME                               : image/jpg
Audio
Format                                   : FLAC
Format/Info                              : Free Lossless Audio Codec
Duration                                 : 30mn 46s
Bit rate mode                            : Variable
Bit rate                                 : 785 Kbps
Channel(s)                               : 1 channel
Sampling rate                            : 48.0 KHz
Bit depth                                : 24 bits
Stream size                              : 173 MiB (100%)
Writing library                          : libFLAC 1.2.1 (UTC 2007-09-17)

(5 серия) # Д 5793-94

А1 Мексика. Нет, сеньор (С. Куриель) - Росита Кинтано
А2 США. Ночь и день (К. Портер) - оркестр
А3 Италия. Прощай (X. Гитц) - Ван Вуд
А4 Франция. Ты лучшая в мире (М. Марини) - Иветт Жиро
А5 Англия. Хорошая песенка (Барт) - Томми Стил
А6 Бельгия. По набережной (К. Вейль) - ансамбль электроинструментов
В1 ГДР. Приятная история (X. Тольскдорф) - Дитер Рет (гитара)
В2 ФРГ. Твое имя (Гландо) - вокальный квинтет Серенадерс
В3 Венгрия. Жаворонок (Д. Виг) - оркестр
В4 Чехословакия. Рассвет (Я. Ежек) - вокальный ансамбль
В5 СССР. Шалун (Э. Вайи) - оркестр
Время звучания: 00:29:43

MediaInfo:

Код:
General
Complete name                            : E:\NNM\VA_Вокруг Света. Эстрадный Концерт_1959\Вокруг Света (5 серия)\ВокрСв_5Сер.flac
Format                                   : FLAC
Format/Info                              : Free Lossless Audio Codec
File size                                : 161 MiB
Duration                                 : 29mn 43s
Overall bit rate mode                    : Variable
Overall bit rate                         : 758 Kbps
Cover                                    : Yes
Cover type                               : Cover (front)
Cover MIME                               : image/jpg
Audio
Format                                   : FLAC
Format/Info                              : Free Lossless Audio Codec
Duration                                 : 29mn 43s
Bit rate mode                            : Variable
Bit rate                                 : 758 Kbps
Channel(s)                               : 1 channel
Sampling rate                            : 48.0 KHz
Bit depth                                : 24 bits
Stream size                              : 161 MiB (100%)
Writing library                          : libFLAC 1.2.1 (UTC 2007-09-17)

Дополнительная информация:

Источник оцифровки: Коллекция (автор раздачи)
Код класса состояния винила: VG
Устройство воспроизведения: Вега 206 Стерео (1 серия), JVC AL-F3 (2,3.4 серии) LENKO L-78 (5 серия)
Головка звукоснимателя: Unitra M1-100 (Вега), штатная (JVC), штатная LENKO L-78
Предварительный усилитель: Встроеный (выход 250 мВ) (Вега), фонокоректор DENON PMA 495-R (JVC), встроеный LENKO L-78
АЦП: SaundMax Integrated Digital HD Audio
Программа-оцифровщик: Adobe audition 1.5
Обработка: Удаление щелчков IZotop, чистка пауз и приглушение рокота в паузах Adobe audition, фэйд ин/аут
Наличие обложек: Фото конвертов и наклеек, присутствуют в раздаче
Раздача, является творческим поиском, можно сказать (экспериментом), для определения наилучшего оборудования (проигрывателя) из моего "арсенала", для оцифровки пластинок данного типа.

Отчёт auCDtect Task manager:

Выдает ошибку, т.к. частоту дискретизации 48000 и битность 24 не понимает!
Код:
Input File     : 'C:\DOCUME~1\F8AE~1\0016~1\(5)~1\_14AA3~1.WAV'
Channels       : 1
Sample Rate    : 48000
Precision      : 24-bit
Duration       : 00:29:00.87 = 83561824 samples ~ 130565 CDDA sectors
File Size      : 251M
Bit Rate       : 1.15M
Sample Encoding: 24-bit Signed Integer PCM

Спектрограмма, уровень записи, АЧХ (1 серия):

Спектрограмма, уровень записи, АЧХ (2 серия):

Спектрограмма, уровень записи, АЧХ (3 серия):

Спектрограмма, уровень записи, АЧХ (4 серия):

Спектрограмма, уровень записи, АЧХ (5 серия):

Время раздачи: C 19:00 до 21:00
Other forum [Profile] [PM]
Display posts from previous:    
Reply to topic

The time now is: Today 13:54

All times are GMT + 3 Hours



You cannot post new topics in this forum
You cannot reply to topics in this forum
You cannot edit your posts in this forum
You cannot delete your posts in this forum
You cannot vote in polls in this forum
You cannot attach files in this forum
You cannot download files in this forum