Today is a free download without charge Download

Прежде мы были птицами (Гарри Бардин) [1982, Рисованный мультфильм, DVDRip]

Reply to topic
 
Author
Message

Omen ®

Longevity: 7 years 11 months

Posts: 181087

Торрент-статистика

Post 08-Jul-2013 00:22

[Quote]

Прежде мы были птицами
Страна: СССР
Жанр: Рисованный мультфильм
Продолжительность: 00:15:48
Год выпуска: 1982
Русские субтитры: нет
Режиссёр: Гарри Бардин
Роли озвучивали: Екатерина Жемчужная, Ф. Эрденко, Б. Ташкентский, Н. Эрденко
Описание: Музыкальный фильм по мотивам старинной цыганской притчи, в которой рассказано о том, как тяга к золоту, богатству лишила цыганских птиц их крыльев и превратила в кочующих людей
Доп. информация: „Союзмультфильм“
Авторы сценария — Юрий Энтин, Гарри Бардин
Художник-постановщик — Е. Фёдорова
Композитор — Н. Жемчужный
Тексты песен — Н. Жемчужный
Операторы — С. Хлебников, Михаил Друян
Звукооператор — Борис Фильчиков
Художники-мультипликаторы — Н. Фёдоров, М. Восканьянц, А. Абаренов, Э. Маслова, В. Лихачёв, А. Алёшина, А. Панов, В. Вышегородцев, Т. Фадеева
Художники — В. Харитонова, Н. Климов, З. Зарб, Е. Караваева
Качество: DVDRip
Формат: AVI
Видео: 704x528 (1.33:1), 25 fps, XviD 65~2098 kbps avg, 0.23 bit/pixel
Аудио: 48 kHz, AC3 Dolby Digital, 2/0 (L,R) ch, ~192.00 kbps avg
Субтитры: нет

Подробные технические данные

ormat : AVIFormat/Info : Audio Video InterleaveFile size : 260 MiBDuration : 15mn 48sOverall bit rate : 2 300 KbpsWriting application : VirtualDubModRus 1.5.10.2 (build 2542/release)Copyright : Rutracker.orgComment : DVDRip by dvdss
VideoID : 0Format : MPEG-4 VisualFormat profile : Advanced [email protected] settings, BVOP : 2Format settings, QPel : NoFormat settings, GMC : No warppointsFormat settings, Matrix : CustomCodec ID : XVIDCodec ID/Hint : XviDDuration : 15mn 48sBit rate : 2 098 KbpsWidth : 704 pixelsHeight : 528 pixelsDisplay aspect ratio : 5:4Original display aspect ratio : 4:3Frame rate : 25.000 fpsColor space : YUVChroma subsampling : 4:2:0Bit depth : 8 bitsScan type : ProgressiveCompression mode : LossyBits/(Pixel*Frame) : 0.226Stream size : 237 MiB (91%)Writing library : XviD 65
AudioID : 1Format : AC-3Format/Info : Audio Coding 3Mode extension : CM (complete main)Format settings, Endianness : BigCodec ID : 2000Duration : 15mn 48sBit rate mode : ConstantBit rate : 192 KbpsChannel(s) : 2 channelsChannel positions : Front: L RSampling rate : 48.0 KHzBit depth : 16 bitsCompression mode : LossyStream size : 21.7 MiB (8%)Alignment : Aligned on interleavesInterleave, duration : 40 ms (1.00 video frame)Interleave, preload duration : 512 ms

Скриншоты

Other forum [Profile] [PM]
Display posts from previous:    
Reply to topic

The time now is: Today 22:33

All times are GMT + 3 Hours



You cannot post new topics in this forum
You cannot reply to topics in this forum
You cannot edit your posts in this forum
You cannot delete your posts in this forum
You cannot vote in polls in this forum
You cannot attach files in this forum
You cannot download files in this forum