Today is a free download without charge Download

VA - Download Festival 2013 Highlights [2013, Rock, HDTV 1080i]

Reply to topic
 
Author
Message

Omen ®

Longevity: 8 years 4 months

Posts: 181087

Торрент-статистика

Post 07-Jul-2013 16:14

[Quote]

Download Festival 2013 Highlights
Жанр: Rock
Продолжительность: 03:45:11
Год выпуска: 2013
Описание: Запись избранных выступлений на фестивале Download 2013 г. (14-16 июня) с канала Sky Arts HD 1 в двух частях (эфир от 29 и 30 июня 2013 г.)
Доп. информация: запись предоставил EV1LAS (BTN)
Качество: HDTV 1080i
Контейнер: TS
Видео кодек: H.264
Аудио кодек: AC3
Видео: H.264 1920x1080 15 Мбит/с 25 к./с
Аудио: DD 2.0 384 кбит/с 48 кГц

Треклист 1-ой части

Введение
1. Slipknot - Dead Memories
Интервью с Клоуном из Slipknot
2. Slipknot - Gently
Интервью с Крисом Робертсоном и Беном Уэллсом из Black Stone Cherry
3. Black Stone Cherry - Blame It on the Boom Boom
Интервью с Head и Munky из Korn
4. Korn - Coming Undone
Интервью с Остином Дикинсоном и Коннором О’Кифом из Rise to Remain
5. Rise to Remain - Bridges Will Burn
6. Architects - Even If You Win, You're Still a Rat
Интервью с Дэном Сирлом и Сэмом Картером из Architects
Интервью с Крисом Хендерсоном из 3 Doors Down

7. 3 Doors Down - Here Without You
Интервью с Миком Микаэли и Джоуи Темпестом из Europe
8. Europe - The Final Countdown
Интервью с Микаэлем Поульсеном и Робом Каджано из Volbeat
9. Volbeat - The Hangman's Body Count
Интервью с Микаэлем Поульсеном и Робом Каджано из Volbeat
10. Volbeat - Dead but Rising
Интервью с Филом Ансельмо из Down
11. Down - Hail the Leaf
12. Rammstein - Feuer Frei!
Интервью с Вадимом Пружановым и Херманом Ли из DragonForce
13. DragonForce - Seasons
Интервью с Тобином Эсперансом и Джакоби Шэддиксом из Papa Roach
14. Papa Roach - Last Resort
Интервью с Крисом Баттеном и Ру Рейнолдсом из Enter Shikari
15. Enter Shikari - Zzzonked
16. Uriah Heep - Easy Livin'
Интервью с Берни Шоу и Миком Боксом из Uriah Heep
Интервью с Джереми Попофф и Эй-Джеем Попофф из Lit

17. Lit - My Own Worst Enemy
Интервью с Энди Паркером и Винни Муром из UFO
18. UFO - Doctor Doctor
Интервью с Майклом Мани, Крейгом Мэббитом, Ти-Джей Беллом и Робертом Ортизом из Escape the Fate
19. Escape the Fate - This War Is Ours (The Guillotine II)
20. Asking Alexandria - The Death of Me
Интервью с Дэнни Уорснопом из Asking Alexandria
21. Stone Sour - Absolute Zero
Интервью с Кори Тейлором из Stone Sour
Интервью с Джошем Оммом и Дином Фертитой из Queens of the Stone Age

22. Queens of the Stone Age - My God is the Sun
Интервью с Джошем Оммом и Дином Фертитой из Queens of the Stone Age
23. Queens of the Stone Age - No One Knows
Интервью с Люком Морли и Дэнни Боузом из Thunder
24. Thunder - I Love You More Than Rock n' Roll
Интервью с Деймоном Джонсоном и Скоттом Горэмом из Black Star Riders
25. Black Star Riders - Jailbreak
Интервью с Мигелем Расконом и Дезом Фафарой из Coal Chamber
26. Coal Chamber - Loco
Интервью с Дрю Годдардом и Иэном Кенни из Karnivool
27. Karnivool - Themata
Интервью с Брэнном Дейлором и Троем Сандерсом из Mastodon
28. Mastodon - Curl of the Burl
29. Iron Maiden - Phantom of the Opera
30. Iron Maiden - Fear of the Dark

Треклист 2-ой части

Введение
1. Iron Maiden - The Trooper
Интервью с Фредом Дёрстом из Limp Bizkit
2. Limp Bizkit - Break Stuff
Интервью с Лиамом Джозефом Кормье из Cancer Bats
3. Cancer Bats - Hail Destroyer
Интервью с Безымянным Гулем из Ghost
4. Ghost - Year Zero
Интервью с Сидом Гловером и Крисом Риверсом из Heaven's Basement
5. Heaven's Basement - Fire Fire
Интервью с Джимом Эдкинсом из Jimmy Eat World
6. Jimmy Eat World - Sweetness
7. Alice in Chains - Dam That River
Интервью с Джерри Кантреллом и Майком Айнезом из Alice in Chains
8. Alice in Chains - Hollow
Интервью с Джаредом Лето, Томо Милишевичем и Шенноном Лето из 30 Seconds to Mars
9. 30 Seconds to Mars - Do or Die
Интервью с Джаредом Лето, Томо Милишевичем и Шенноном Лето из 30 Seconds to Mars
10. 30 Seconds to Mars - Conquistador
Интервью с Брайаном Фэллоном и Алексом Розамилией из The Gaslight Anthem
11. The Gaslight Anthem - 45
Интервью с Джереми Макинноном и Кевином Скаффом из A Day to Remember
12. A Day to Remember - All I Want
Интервью с Джоном Тейлором и Густавом Вудом из Young Guns
13. Young Guns - Stitches
14. Motörhead - Killed by Death
Интервью с Райаном О’Кифом и Джоэлом О’Кифом из Airbourne
15. Airbourne - Raise the Flag
Интервью с Энди Джеймсом и Дэррином Саутом из Sacred Mother Tongue
16. Sacred Mother Tongue - Evolve/Become
Интервью с Робином Эверхартом, Скоттом Холидеем и Джеем Бьюкененом из Rival Souls
17. Rival Souls - Keep on Swinging
18. Ammon Amarth - Twilight of the Thunder God
Интервью с Кори Тейлором из Slipknot/Stone Sour
19. Slipknot - Psychosocial
Интервью с Кори Тейлором из Slipknot/Stone Sour
20. Slipknot - Surfacing
Интервью с Кори Тейлором из Slipknot/Stone Sour
21. Stone Sour - Made of Scars
Интервью с Джоном Лими и Крисом Госсом из Masters of Reality
22. Masters of Reality - Third Man of the Moon
23. Graveyard - Seven Seven
24. The Ghost Inside - Engine 45
Интервью с Джонатаном Виджилом и Джимом Райли из The Ghost Inside
25. Parkway Drive - Carrion
Интервью с Евгением Гудзем из Gogol Bordello
26. Gogol Bordello - Not a Crime
Интервью с Музом Томасом и Мэттом Таком из Bullet for My Valentine
27. Bullet for My Valentine - Scream Aim Fire
Интервью с Музом Томасом и Мэттом Таком из Bullet for My Valentine
28. Bullet for My Valentine - Tears Don't Fall
Интервью с Золтаном Батори и Айвеном Муди из Five Finger Death Punch
29. Five Finger Death Punch - Under and Over Again
30. Rammstein - Du Hast

Отчёт MediaInfo

Часть 1

GeneralID : 1 (0x1)Complete name : F:\Video\Music\Festivals\Download Festival 2013 1080i HDTV DD2.0 H.264\Download Festival 2013 Part 1 1080i HDTV DD2.0 H.264-EV1LAS.tsFormat : MPEG-TSFile size : 12.9 GiBDuration : 1h 52mnOverall bit rate mode : VariableOverall bit rate : 16.3 Mbps
VideoID : 513 (0x201)Menu ID : 1 (0x1)Format : AVCFormat/Info : Advanced Video CodecFormat profile : [email protected] settings, CABAC : YesFormat settings, ReFrames : 4 framesFormat settings, GOP : M=4, N=12Codec ID : 27Duration : 1h 52mnBit rate : 15.1 MbpsWidth : 1 920 pixelsHeight : 1 080 pixelsDisplay aspect ratio : 16:9Frame rate : 25.000 fpsColor space : YUVChroma subsampling : 4:2:0Bit depth : 8 bitsScan type : InterlacedScan order : Top Field FirstBits/(Pixel*Frame) : 0.292Stream size : 11.9 GiB (93%)Color primaries : BT.709Transfer characteristics : BT.709Matrix coefficients : BT.709
AudioID : 661 (0x295)Menu ID : 1 (0x1)Format : AC-3Format/Info : Audio Coding 3Mode extension : CM (complete main)Format settings, Endianness : BigCodec ID : 6Duration : 1h 52mnBit rate mode : ConstantBit rate : 384 KbpsChannel(s) : 2 channelsChannel positions : Front: L RSampling rate : 48.0 KHzBit depth : 16 bitsCompression mode : LossyStream size : 310 MiB (2%)Language : English

Часть 2

GeneralID : 1 (0x1)Complete name : F:\Video\Music\Festivals\Download Festival 2013 1080i HDTV DD2.0 H.264\Download Festival 2013 Part 2 1080i HDTV DD2.0 H.264-EV1LAS.tsFormat : MPEG-TSFile size : 12.7 GiBDuration : 1h 52mnOverall bit rate mode : VariableOverall bit rate : 16.2 Mbps
VideoID : 513 (0x201)Menu ID : 1 (0x1)Format : AVCFormat/Info : Advanced Video CodecFormat profile : [email protected] settings, CABAC : YesFormat settings, ReFrames : 4 framesFormat settings, GOP : M=4, N=12Codec ID : 27Duration : 1h 52mnBit rate : 15.0 MbpsWidth : 1 920 pixelsHeight : 1 080 pixelsDisplay aspect ratio : 16:9Frame rate : 25.000 fpsColor space : YUVChroma subsampling : 4:2:0Bit depth : 8 bitsScan type : InterlacedScan order : Top Field FirstBits/(Pixel*Frame) : 0.290Stream size : 11.8 GiB (93%)Color primaries : BT.709Transfer characteristics : BT.709Matrix coefficients : BT.709
AudioID : 661 (0x295)Menu ID : 1 (0x1)Format : AC-3Format/Info : Audio Coding 3Mode extension : CM (complete main)Format settings, Endianness : BigCodec ID : 6Duration : 1h 52mnBit rate mode : ConstantBit rate : 384 KbpsChannel(s) : 2 channelsChannel positions : Front: L RSampling rate : 48.0 KHzBit depth : 16 bitsCompression mode : LossyStream size : 309 MiB (2%)Language : English

Скриншоты

Other forum [Profile] [PM]
Display posts from previous:    
Reply to topic

The time now is: Today 18:16

All times are GMT + 3 Hours



You cannot post new topics in this forum
You cannot reply to topics in this forum
You cannot edit your posts in this forum
You cannot delete your posts in this forum
You cannot vote in polls in this forum
You cannot attach files in this forum
You cannot download files in this forum