Today is a free download without charge Download

(Soundtrack) Форсаж 6 / Fast and Furious 6 (2013) [FLAC|Lossless]

Reply to topic
 
Author
Message

Meshanik ®

Gender:

Longevity: 9 years 6 months

Posts: 3866

Location: Los Angeles

Торрент-статистика

Post 07-Jul-2013 15:21

[Quote]

Форсаж 6 / Fast & Furious 6
все дороги принадлежат им
- Год выпуска: 2013
Жанр: Soundtrack
Кодек: FLAC
Битрейт: Lossless
Продолжительность: 00:50:23
-Треклист:-01. 2 Chainz and Wiz Khalifa / We Own It (Fast and Furious) [0:03:47.67]
02. T.I. feat. Lil Wayne / Ball [0:03:24.37]
03. Sua feat. Jiggy Drama / Con Locura [0:03:47.16]
04. MC Jin feat. Daniel Wu / HK Superstar [0:03:24.45]
05. deadmau5 feat. Cypress Hill / Failbait [0:04:49.48]
06. Benny Banks / Bada Bing [0:03:19.25]
07. Peaches / Burst! (Bart B More Remix) [0:06:13.21]
08. Deluxe / Mister Chicken [0:03:13.33]
09. The Crystal Method / Roll It up [0:06:01.20]
10. Hard Rock Sofa and Swanky Tunes / Here we Go-Quasar (Hybrid Remix) [0:03:23.04]
11. Don Omar feat. Tego Calderon / Bandoleros [0:05:06.47]
12. Ludarcis feat. Usher and David Guetta / Rest of My Life [0:03:52.04]
-

Отчёт ЕАС:

Exact Audio Copy V1.0 beta 1 from 15. November 2010
EAC extraction logfile from 7. June 2013, 22:36
Various / Fast and Furious 6
Used drive : PIONEER DVD-RW DVR-118L Adapter: 4 ID: 0
Read mode : Secure
Utilize accurate stream : Yes
Defeat audio cache : Yes
Make use of C2 pointers : No
Read offset correction : 6
Overread into Lead-In and Lead-Out : No
Fill up missing offset samples with silence : Yes
Delete leading and trailing silent blocks : No
Null samples used in CRC calculations : Yes
Used interface : Native Win32 interface for Win NT & 2000
Used output format : Internal WAV Routines
Sample format : 44.100 Hz; 16 Bit; Stereo
TOC of the extracted CD
Track | Start | Length | Start sector | End sector
---------------------------------------------------------
1 | 0:00.00 | 3:47.67 | 0 | 17091
2 | 3:47.67 | 3:24.37 | 17092 | 32428
3 | 7:12.29 | 3:47.16 | 32429 | 49469
4 | 10:59.45 | 3:24.45 | 49470 | 64814
5 | 14:24.15 | 4:49.48 | 64815 | 86537
6 | 19:13.63 | 3:19.25 | 86538 | 101487
7 | 22:33.13 | 6:13.21 | 101488 | 129483
8 | 28:46.34 | 3:13.33 | 129484 | 143991
9 | 31:59.67 | 6:01.20 | 143992 | 171086
10 | 38:01.12 | 3:23.04 | 171087 | 186315
11 | 41:24.16 | 5:06.47 | 186316 | 209312
12 | 46:30.63 | 3:52.04 | 209313 | 226716
Range status and errors
Selected range
Filename F:\YES ! We Speak Lossless @ ThailandTorrent\Various - Fast and Furious 6.wav
Peak level 99.9 %
Extraction speed 0.1 X
Range quality 100.0 %
Test CRC C0EE95E7
Copy CRC C0EE95E7
Copy OK
No errors occurred
AccurateRip summary
Track 1 not present in database
Track 2 not present in database
Track 3 not present in database
Track 4 not present in database
Track 5 not present in database
Track 6 not present in database
Track 7 not present in database
Track 8 not present in database
Track 9 not present in database
Track 10 not present in database
Track 11 not present in database
Track 12 not present in database
None of the tracks are present in the AccurateRip database
End of status report
==== Log checksum 56EF89A715EE83E7859ACFA58782F233AB58E15AEA302762964F599E6771967B ====
-

Отчёт auCDtect Task manager:

-----------------------
DON'T MODIFY THIS FILE
-----------------------
PERFORMER: auCDtect Task Manager, ver. 1.5.1RC2 build 1.5.1.3
Copyright (c) 2008-2010 y-soft. All rights reserved
http://y-soft.org
ANALYZER:
FILE: Various - Fast and Furious 6.flac
Size: 369456016 Hash: D0E1AC798058641F46804CA90CEA4DD4 Accuracy: -m0
Conclusion: MPEG 95%
Signature: 4F795605F61D254DC8FF4ACD87436A680E664BE0
-

Содержание индексной карты (.CUE):

REM GENRE Soundtrack
REM DATE 2013
REM DISCID AB0BCE0C
REM COMMENT "ExactAudioCopy v1.0b1"
PERFORMER "Various"
TITLE "Fast and Furious 6"
FILE "Various - Fast and Furious 6.flac" WAVE
TRACK 01 AUDIO
TITLE "We Own It (Fast and Furious)"
PERFORMER "2 Chainz and Wiz Khalifa"
INDEX 01 00:00:00
TRACK 02 AUDIO
TITLE "Ball"
PERFORMER "T.I. feat. Lil Wayne"
INDEX 01 03:47:67
TRACK 03 AUDIO
TITLE "Con Locura"
PERFORMER "Sua feat. Jiggy Drama"
INDEX 00 06:24:02
INDEX 01 07:12:29
TRACK 04 AUDIO
TITLE "HK Superstar"
PERFORMER "MC Jin feat. Daniel Wu"
INDEX 01 10:59:45
TRACK 05 AUDIO
TITLE "Failbait"
PERFORMER "deadmau5 feat. Cypress Hill"
INDEX 01 14:24:15
TRACK 06 AUDIO
TITLE "Bada Bing"
PERFORMER "Benny Banks"
INDEX 01 19:13:63
TRACK 07 AUDIO
TITLE "Burst! (Bart B More Remix)"
PERFORMER "Peaches"
INDEX 01 22:33:13
TRACK 08 AUDIO
TITLE "Mister Chicken"
PERFORMER "Deluxe"
INDEX 01 28:46:34
TRACK 09 AUDIO
TITLE "Roll It up"
PERFORMER "Thze Crystal Method"
INDEX 01 31:59:67
TRACK 10 AUDIO
TITLE "Here we Go-Quasar (Hybrid Remix)"
PERFORMER "Hard Rock Sofa and Swanky Tunes"
INDEX 01 38:01:12
TRACK 11 AUDIO
TITLE "Bandoleros"
PERFORMER "Don Omar feat. Tego Calderon"
INDEX 01 41:24:16
TRACK 12 AUDIO
TITLE "Rest of My Life"
PERFORMER "Ludarcis feat. Usher and David Guetta"
INDEX 01 46:30:63
-

Спектрограмма:

 
-
Other forum [Profile] [PM]
Display posts from previous:    
Reply to topic

The time now is: Today 01:51

All times are GMT + 3 Hours



You cannot post new topics in this forum
You cannot reply to topics in this forum
You cannot edit your posts in this forum
You cannot delete your posts in this forum
You cannot vote in polls in this forum
You cannot attach files in this forum
You cannot download files in this forum