Today is a free download without charge Download

(OST) Цветы зла / Flowers of Evil / Aku no Hana [1CD] [FLAC, tracks, lossless] [2013 г.]

Reply to topic
 
Author
Message

Omen ®

Longevity: 9 years 1 month

Posts: 181086

Торрент-статистика

Post 06-Jul-2013 18:17

[Quote]

Цветы зла / Flowers of Evil / Aku no Hana / 惡の華 Год выпуска: 2013 г.
Страна: Япония
Продолжительность: 34.50
Аудио кодек: FLAC (*.flac)
Тип рипа: tracks
Описание: раздача музыки, связанной с аниме Aku no Hana.
Обновляться будет по мере появления дисков в сети.

[AR] Aku no Hana Concept E.P. Aku no Kafu

Дата выпуска: 26 июня 2013 г.
Каталог: KICS-1916
Тип рипа: tracks
Продолжительность: 34.50
Наличие сканов в содержимом раздачи: нет
Треклист:
1) Hana -a last flower-;
2) Aku no Hana -Nakamura Sawa-;
3) Aku no Hana -Kasuga Takao-;
4) Aku no Hana -Saeki Nanako-;
5) Aku no Hana -Gunma Ken Kiryu Shi-;
6) Hana -a last flower- (instrumental);
7) Aku no Hana -Nakamura Sawa- (instrumental);
8) Aku no Hana -Kasuga Takao- (instrumental);
9) Aku no Hana -Saeki Nanako- (instrumental);
10) Aku no Hana -Gunma Ken Kiryu Shi- (instrumental).
11) Hikarigoke (BONUS).

Лог проверки качества

Exact Audio Copy V1.0 beta 2 from 29. April 2011
EAC extraction logfile from 3. July 2013, 12:06
V.A. / 惡の花譜
Used drive : HL-DT-STDVDRAM GH20NS10 Adapter: 4 ID: 0
Read mode : SecureUtilize accurate stream : YesDefeat audio cache : YesMake use of C2 pointers : No
Read offset correction : 667Overread into Lead-In and Lead-Out : NoFill up missing offset samples with silence : YesDelete leading and trailing silent blocks : NoNull samples used in CRC calculations : YesUsed interface : Native Win32 interface for Win NT & 2000Gap handling : Appended to previous track
Used output format : User Defined EncoderSelected bitrate : 32 kBit/sQuality : HighAdd ID3 tag : NoCommand line compressor : C:\Program Files (x86)\FLAC\flac.exe
TOC of the extracted CD
Track | Start | Length | Start sector | End sector --------------------------------------------------------- 1 | 0:00.00 | 6:22.40 | 0 | 28689 2 | 6:22.40 | 1:37.05 | 28690 | 35969 3 | 7:59.45 | 1:36.47 | 35970 | 43216 4 | 9:36.17 | 1:34.25 | 43217 | 50291 5 | 11:10.42 | 1:35.72 | 50292 | 57488 6 | 12:46.39 | 6:22.32 | 57489 | 86170 7 | 19:08.71 | 1:36.73 | 86171 | 93443 8 | 20:45.69 | 1:35.74 | 93444 | 100642 9 | 22:21.68 | 1:34.16 | 100643 | 107708 10 | 23:56.09 | 1:39.20 | 107709 | 115153 11 | 25:35.29 | 9:14.43 | 115154 | 156746
Track 1
Filename C:\EAC Rips\01 花 -a last flower-.wav
Pre-gap length 0:00:02.00
Peak level 99.4 % Extraction speed 4.7 X Track quality 100.0 % Test CRC 5A6AFAEB Copy CRC 5A6AFAEB Track not present in AccurateRip database Copy OK
Track 2
Filename C:\EAC Rips\02 惡の華 -仲村佐和-.wav
Pre-gap length 0:00:05.46
Peak level 99.4 % Extraction speed 4.3 X Track quality 100.0 % Test CRC 31D07E1E Copy CRC 31D07E1E Track not present in AccurateRip database Copy OK
Track 3
Filename C:\EAC Rips\03 惡の華 -春日高男-.wav
Pre-gap length 0:00:01.46
Peak level 99.4 % Extraction speed 3.1 X Track quality 99.8 % Test CRC 537FA18A Copy CRC 537FA18A Track not present in AccurateRip database Copy OK
Track 4
Filename C:\EAC Rips\04 惡の華 -佐伯奈々子-.wav
Pre-gap length 0:00:01.46
Peak level 99.4 % Extraction speed 4.4 X Track quality 100.0 % Test CRC BA2AB7DC Copy CRC BA2AB7DC Track not present in AccurateRip database Copy OK
Track 5
Filename C:\EAC Rips\05 惡の華 -群馬県桐生市-.wav
Pre-gap length 0:00:01.46
Peak level 99.4 % Extraction speed 3.2 X Track quality 99.8 % Test CRC FCE30BA6 Copy CRC FCE30BA6 Track not present in AccurateRip database Copy OK
Track 6
Filename C:\EAC Rips\06 花 -a last flower- (歌無し).wav
Pre-gap length 0:00:03.46
Peak level 99.4 % Extraction speed 5.6 X Track quality 99.9 % Test CRC D340E26E Copy CRC D340E26E Track not present in AccurateRip database Copy OK
Track 7
Filename C:\EAC Rips\07 惡の華 -仲村佐和- (歌無し).wav
Pre-gap length 0:00:05.46
Peak level 99.4 % Extraction speed 5.2 X Track quality 100.0 % Test CRC E5971BB9 Copy CRC E5971BB9 Track not present in AccurateRip database Copy OK
Track 8
Filename C:\EAC Rips\08 惡の華 -春日高男- (歌無し).wav
Pre-gap length 0:00:01.46
Peak level 99.4 % Extraction speed 5.4 X Track quality 100.0 % Test CRC 47DBD135 Copy CRC 47DBD135 Track not present in AccurateRip database Copy OK
Track 9
Filename C:\EAC Rips\09 惡の華 -佐伯奈々子- (歌無し).wav
Pre-gap length 0:00:01.46
Peak level 99.4 % Extraction speed 5.2 X Track quality 100.0 % Test CRC 5EF92129 Copy CRC 5EF92129 Track not present in AccurateRip database Copy OK
Track 10
Filename C:\EAC Rips\10 惡の華 -群馬県桐生市- (歌無し).wav
Pre-gap length 0:00:01.46
Peak level 99.4 % Extraction speed 4.0 X Track quality 99.8 % Test CRC E51CAEBA Copy CRC E51CAEBA Track not present in AccurateRip database Copy OK
Track 11
Filename C:\EAC Rips\11 光蘚 (BONUS).wav
Pre-gap length 0:00:07.00
Peak level 99.4 % Extraction speed 7.8 X Track quality 100.0 % Test CRC 52F1D4ED Copy CRC 52F1D4ED Track not present in AccurateRip database Copy OK
None of the tracks are present in the AccurateRip database
No errors occurred
End of status report
==== Log checksum D6D8F2E4590581F82B991EB07AD83803C905BABFA53397DDDDFFDE5F62EC4E51 ====

-
-[AR] — данное обозначение свидетельствует о том, что рип сделан в соответствии с данными настройками и является максимально точным.-

FAQ

В: Когда тут появится "N-ый" альбом?
О: После его выхода (узнать дату выхода можно, например, на cdjapan), загрузки в интернеты и появления у меня свободного времени.
В: Почему скорость маленькая?
О: Моя исходящая скорость равна 1мбиту, ничего с этим поделать не могу.
В: А как называется трек из "N-ой" серии, играющий на "X" минуте?
О: Рекомендую скачать саундтрек и поискать самим — быстрее будет.
В: Почему треки не разделены?
О: Правилами запрещено менять форм-фактор. Да и раздачи образом мне больше нравятся, если честно.
В: Я нашёл ошибку в оформлении/раздаче.
О: Пожалуйста, напишите мне в личку об этом.
В: Как можно отслеживать релизы?
О: Либо используя фид на весь раздел остов в лосе (или только мои релизы), либо в твиттере (в нём ещё буду писать, что в планах на будущее).
Other forum [Profile] [PM]
Display posts from previous:    
Reply to topic

The time now is: Today 09:46

All times are GMT + 3 Hours



You cannot post new topics in this forum
You cannot reply to topics in this forum
You cannot edit your posts in this forum
You cannot delete your posts in this forum
You cannot vote in polls in this forum
You cannot attach files in this forum
You cannot download files in this forum