Today is a free download without charge Download

Ранние анимационные фильмы Владислава Старевича (Владислав Старевич) [1912-1913.,Анимация]DVDRip

Reply to topic
 
Author
Message

sashau ®

Gender:

Longevity: 8 years 10 months

Posts: 3497

Торрент-статистика

Post 06-Jul-2013 16:12

[Quote]

Ранние анимационные фильмы Владислава Старевича - Название: Ранние анимационные фильмы Владислава Старевича
Режиссер: Владислав Старевич
Год выпуска: 1912-1913
Жанр: Анимация
Выпущено: Россия, АО А.Ханжонков
Описание фильма:
В сборнике представлены анимационные фильмы, которые наряду с "Прекрасной Люканидой" и "Местью кинематографического оператора" столетие назад сделали всемирноизвестным имя российского режиссёра Владислава Старевича. Мультфильмы, доступные ранее с раздражающими неотключаемыми субтитрами (хардсабами) или же полностью на английском языке, теперь можно увидеть с восстановленными русскими интертитрами (к сожалению, неоригинальными, воссозданными при последующих реставрациях). А совсем небольшой фильм "Весёлые сценки из жизни насекомых" (так в заглавном титре, в литературе у него другое название - "Весёлые сценки из жизни животных") - считается отправной точкой в развитии изобретённого Старевичем метода объёмной мультипликации. Неудача с осуществлением замысла снять игровой фильм с участием живых насекомых, натолкнула его на интересную мысль. "Я представил себе, - вспоминал Старевич, - ручки и ножки проволочных "живых" фигурок, которые в былые годы рисовал на полях тетрадей. Если таким образом можно оживить рисунок, то почему бы не попробовать сделать то же самое, например с мёртвым жуком, придавая ему необходимые позы?" Знание энтомологии и собственная большая коллекция насекомых помогли ему создать точные, практически неотличимые от оригинала, копии жуков, бабочек, кузнечиков и других героев своих волшебных историй.
Продолжительность: 00:02:06+00:06:48+00:04:47
Качество видео: DVDRip (конечно же, исходный материал - это старые ленты немого кино соответствено невысокого качества)
Видеокодек: Xvid
Битрейт видео: ~2230 kbps
Размер кадра: 640x480/576x432/624x464
Аудиокодек: AC3 2.0
Битрейт аудио: 192 kbps

Содержание сборника:

Весёлые сценки из жизни насекомых(1912)

Рождество обитателей леса(1913)

Стрекоза и муравей(1913)

MediaInfo

Код:
Общее
Полное имя                               : D:\1UP\STAREVICH\Весёлые сценки из жизни насекомых(1912).avi
Формат                                   : AVI
Формат/Информация                        : Audio Video Interleave
Размер файла                             : 36,7 Мбайт
Продолжительность                        : 2 м. 6 с.
Общий поток                              : 2427 Кбит/сек
Программа кодирования                    : VirtualDubMod 1.5.10.2 (build 2540/release)
Библиотека кодирования                   : VirtualDubMod build 2540/release
Видео
Идентификатор                            : 0
Формат                                   : MPEG-4 Visual
Профиль формата                          : Advanced [email protected]
Параметр BVOP формата                    : 2
Параметр QPel формата                    : Нет
Параметр GMC формата                     : Без точки перехода
Параметр матрицы формата                 : Default (MPEG)
Идентификатор кодека                     : XVID
Идентификатор кодека/Подсказка           : XviD
Продолжительность                        : 2 м. 6 с.
Битрейт                                  : 2225 Кбит/сек
Ширина                                   : 640 пикселей
Высота                                   : 480 пикселей
Соотношение сторон                       : 4:3
Частота кадров                           : 25,000 кадров/сек
Цветовое пространство                    : YUV
Субдискретизация насыщенности            : 4:2:0
Битовая глубина                          : 8 бит
Тип развёртки                            : Прогрессивная
Метод сжатия                             : С потерями
Бит/(Пиксели*Кадры)                      : 0.290
Размер потока                            : 33,6 Мбайт (92%)
Библиотека кодирования                   : XviD 1.2.0.dev47 (UTC 2006-11-01)
Аудио
Идентификатор                            : 1
Формат                                   : AC-3
Формат/Информация                        : Audio Coding 3
Расширение режима                        : CM (complete main)
Параметр Endianness формата              : Big
Идентификатор кодека                     : 2000
Продолжительность                        : 2 м. 6 с.
Вид битрейта                             : Постоянный
Битрейт                                  : 192 Кбит/сек
Каналы                                   : 2 канала
Расположение каналов                     : Front: L R
Частота                                  : 48,0 КГц
Битовая глубина                          : 16 бит
Метод сжатия                             : С потерями
Размер потока                            : 2,90 Мбайт (8%)
Выравнивание                             : Разделение по промежуткам
Продолжительность промежутка             : 40  мс. (1,00 видеокадр)
Время предзагрузки промежутка            : 500  мс.
Общее
Полное имя                               : D:\1UP\STAREVICH\Рождество обитателей леса(1913).avi
Формат                                   : AVI
Формат/Информация                        : Audio Video Interleave
Размер файла                             : 122 Мбайт
Продолжительность                        : 6 м. 48 с.
Общий поток                              : 2502 Кбит/сек
Программа кодирования                    : VirtualDubMod 1.5.10.2 (build 2540/release)
Библиотека кодирования                   : VirtualDubMod build 2540/release
Видео
Идентификатор                            : 0
Формат                                   : MPEG-4 Visual
Профиль формата                          : Advanced [email protected]
Параметр BVOP формата                    : 2
Параметр QPel формата                    : Нет
Параметр GMC формата                     : Без точки перехода
Параметр матрицы формата                 : Default (H.263)
Идентификатор кодека                     : XVID
Идентификатор кодека/Подсказка           : XviD
Продолжительность                        : 6 м. 48 с.
Битрейт                                  : 2300 Кбит/сек
Ширина                                   : 576 пикселей
Высота                                   : 432 пикселя
Соотношение сторон                       : 4:3
Частота кадров                           : 23,976 кадра/сек
Цветовое пространство                    : YUV
Субдискретизация насыщенности            : 4:2:0
Битовая глубина                          : 8 бит
Тип развёртки                            : Прогрессивная
Метод сжатия                             : С потерями
Бит/(Пиксели*Кадры)                      : 0.385
Размер потока                            : 112 Мбайт (92%)
Библиотека кодирования                   : XviD 1.2.0.dev47 (UTC 2006-11-01)
Аудио
Идентификатор                            : 1
Формат                                   : AC-3
Формат/Информация                        : Audio Coding 3
Расширение режима                        : CM (complete main)
Параметр Endianness формата              : Big
Идентификатор кодека                     : 2000
Продолжительность                        : 6 м. 48 с.
Вид битрейта                             : Постоянный
Битрейт                                  : 192 Кбит/сек
Каналы                                   : 2 канала
Расположение каналов                     : Front: L R
Частота                                  : 48,0 КГц
Битовая глубина                          : 16 бит
Метод сжатия                             : С потерями
Размер потока                            : 9,36 Мбайт (8%)
Выравнивание                             : Разделение по промежуткам
Продолжительность промежутка             : 42  мс. (1,00 видеокадр)
Время предзагрузки промежутка            : 500  мс.
Общее
Полное имя                               : D:\1UP\STAREVICH\Стрекоза и муравей(1913).avi
Формат                                   : AVI
Формат/Информация                        : Audio Video Interleave
Размер файла                             : 83,0 Мбайт
Продолжительность                        : 4 м. 47 с.
Общий поток                              : 2417 Кбит/сек
Программа кодирования                    : VirtualDubMod 1.5.10.2 (build 2540/release)
Библиотека кодирования                   : VirtualDubMod build 2540/release
Видео
Идентификатор                            : 0
Формат                                   : MPEG-4 Visual
Профиль формата                          : Advanced [email protected]
Параметр BVOP формата                    : 2
Параметр QPel формата                    : Нет
Параметр GMC формата                     : Без точки перехода
Параметр матрицы формата                 : Default (MPEG)
Идентификатор кодека                     : XVID
Идентификатор кодека/Подсказка           : XviD
Продолжительность                        : 4 м. 47 с.
Битрейт                                  : 2215 Кбит/сек
Ширина                                   : 624 пикселя
Высота                                   : 464 пикселя
Соотношение сторон                       : 4:3
Частота кадров                           : 23,976 кадра/сек
Цветовое пространство                    : YUV
Субдискретизация насыщенности            : 4:2:0
Битовая глубина                          : 8 бит
Тип развёртки                            : Прогрессивная
Метод сжатия                             : С потерями
Бит/(Пиксели*Кадры)                      : 0.319
Размер потока                            : 76,0 Мбайт (92%)
Библиотека кодирования                   : XviD 1.2.0.dev47 (UTC 2006-11-01)
Аудио
Идентификатор                            : 1
Формат                                   : AC-3
Формат/Информация                        : Audio Coding 3
Расширение режима                        : CM (complete main)
Параметр Endianness формата              : Big
Идентификатор кодека                     : 2000
Продолжительность                        : 4 м. 47 с.
Вид битрейта                             : Постоянный
Битрейт                                  : 192 Кбит/сек
Каналы                                   : 2 канала
Расположение каналов                     : Front: L R
Частота                                  : 48,0 КГц
Битовая глубина                          : 16 бит
Метод сжатия                             : С потерями
Размер потока                            : 6,59 Мбайт (8%)
Выравнивание                             : Разделение по промежуткам
Продолжительность промежутка             : 42  мс. (1,00 видеокадр)
Время предзагрузки промежутка            : 500  мс.
Скриншоты:          
Other forum [Profile] [PM]
Display posts from previous:    
Reply to topic

The time now is: Today 11:29

All times are GMT + 3 Hours



You cannot post new topics in this forum
You cannot reply to topics in this forum
You cannot edit your posts in this forum
You cannot delete your posts in this forum
You cannot vote in polls in this forum
You cannot attach files in this forum
You cannot download files in this forum