Today is a free download without charge Download

Nightwish - Montreux Jazz Festival 2012 PRO [2012, Symphonic Metal, HDTV 720p]

Reply to topic
 
Author
Message

Omen ®

Longevity: 8 years 4 months

Posts: 181087

Торрент-статистика

Post 06-Jul-2013 14:13

[Quote]

Nightwish - Montreux Jazz Festival 2012 PRO- Жанр: Symphonic Metal
Продолжительность: 00:50:06
Год выпуска: 2012-Трек-лист:
1 Storytime (Not broadcasted)
2 I Wish I Had An Angel (Not broadcasted)
3 Amaranth (Not broadcasted)
4 Scaretale (Not broadcasted)

5 Slow, Love, Slow
6 I Want My Tears Back
7 Come Cover Me
8 Last Of The Wilds
9 Planet Hell
10 Nemo
11 Over The Hills And Far Away
12 Song Of Myself
13 Last Ride Of The Day-Доп. информация:
TV broadcast
Channel: RTSdeux
Year: 2012, broadcast on June 15, 2013
MPEG-2 via DVB-C (Panasonic DMR-BCT720) - Blu-ray BD-R - m2ts file (no re-encoding)-Качество: HDTV 720p
Контейнер: M2TS
Видео кодек: MPEG2
Аудио кодек: AC3
Видео: 16:9, MPEG-2, 50 fps, 1280p x 720p, 8944 kbps
Аудио: AC3, 48000 Hz 16 Bit, 448 kbps, 2 channels
Аудио 2: MPEG Audio, 48000 Hz 16 Bit, 192 kbps, 2 channels
Аудио 3: MPEG Audio, 48000 Hz 16 Bit, 192 kbps, 2 channels-

Отчёт MediaInfo / BDInfo

GeneralID : 89 (0x59)Complete name : H:\Nightwish\2012.07.12 - Montreux Jazz Festival\Nightwish_MontreuxJazzFestival12_Montreux_12-JUL-2012.m2tsFormat : BDAVFormat/Info : Blu-ray VideoFile size : 4.17 GiBDuration : 50mn 6sOverall bit rate mode : VariableOverall bit rate : 11.9 MbpsMaximum Overall bit rate : 28.0 Mbps
VideoID : 80 (0x50)Menu ID : 9041 (0x2351)Format : AVCFormat/Info : Advanced Video CodecFormat profile : [email protected] settings, CABAC : YesFormat settings, ReFrames : 3 framesFormat settings, GOP : M=2, N=24Codec ID : 27Duration : 50mn 6sBit rate : 10.6 MbpsWidth : 1 280 pixelsHeight : 720 pixelsDisplay aspect ratio : 16:9Frame rate : 50.000 fpsStandard : ComponentColor space : YUVChroma subsampling : 4:2:0Bit depth : 8 bitsScan type : ProgressiveBits/(Pixel*Frame) : 0.230Stream size : 3.70 GiB (89%)Color primaries : BT.709Transfer characteristics : BT.709Matrix coefficients : BT.709
Audio #1ID : 81 (0x51)Menu ID : 9041 (0x2351)Format : MPEG AudioFormat version : Version 1Format profile : Layer 2Mode : Joint stereoMode extension : Intensity Stereo + MS StereoCodec ID : 3Duration : 50mn 6sBit rate mode : ConstantBit rate : 192 KbpsChannel(s) : 2 channelsSampling rate : 48.0 KHzCompression mode : LossyDelay relative to video : -732msStream size : 68.8 MiB (2%)Language : FrenchLanguage, more info : Clean effects
Audio #2ID : 82 (0x52)Menu ID : 9041 (0x2351)Format : MPEG AudioFormat version : Version 1Format profile : Layer 2Mode : Joint stereoMode extension : Intensity Stereo + MS StereoCodec ID : 3Duration : 50mn 6sBit rate mode : ConstantBit rate : 192 KbpsChannel(s) : 2 channelsSampling rate : 48.0 KHzCompression mode : LossyDelay relative to video : -756msStream size : 68.8 MiB (2%)Language : EnglishLanguage, more info : Clean effects
Audio #3ID : 91 (0x5B)Menu ID : 9041 (0x2351)Format : AC-3Format/Info : Audio Coding 3Mode extension : CM (complete main)Format settings, Endianness : BigCodec ID : 129Duration : 50mn 6sBit rate mode : ConstantBit rate : 448 KbpsChannel(s) : 6 channelsChannel positions : Front: L C R, Side: L R, LFESampling rate : 48.0 KHzBit depth : 16 bitsCompression mode : LossyDelay relative to video : -734msStream size : 161 MiB (4%)Language : FrenchLanguage, more info : Clean effects
Text #1ID : 110 (0x6E)-100Menu ID : 9041 (0x2351)Format : TeletextLanguage : French
Text #2ID : 110 (0x6E)-777Menu ID : 9041 (0x2351)Format : Teletext SubtitleLanguage : French
MenuID : 100 (0x64)Menu ID : 9041 (0x2351)Duration : 50mn 6sList : 80 (0x50) (AVC) / 81 (0x51) (MPEG Audio, French) / 82 (0x52) (MPEG Audio, English) / 91 (0x5B) (AC-3, French) / 110 (0x6E) ()Language : / French / English / French

-

Скриншоты

-
Other forum [Profile] [PM]
Display posts from previous:    
Reply to topic

The time now is: Today 17:39

All times are GMT + 3 Hours



You cannot post new topics in this forum
You cannot reply to topics in this forum
You cannot edit your posts in this forum
You cannot delete your posts in this forum
You cannot vote in polls in this forum
You cannot attach files in this forum
You cannot download files in this forum