Today is a free download without charge Download

Речные монстры: Гигантский угорь (2011) SATRip

Reply to topic
 
Author
Message

UndegraundMen ®

Longevity: 7 years 7 months

Posts: 25145

Торрент-статистика

Post 06-Jul-2013 06:14

[Quote]

Речные монстры: Гигантский угорь (2011) SATRip - Режиссер / Телекомпания: Discovery
Год выпуска: 2011
Жанр: Телепередача
Описание:
Правда ли, что рыба, живущая на дне Амазонки, может проглотить человека целиком? Способна ли стая пираний за минуту уничтожить лошадь, переходящую водоем? И стоит ли одинокому путнику освежаться в водах Конго? На Discovery Channel выходит программа «Речные монстры» - уникальное расследование загадок, скрываемых крупнейшими реками Земли. Биолог и экстремальный рыболов Джереми Уэйд путешествует по миру в поисках поражающих воображение обитателей рек, чтобы выяснить – правдивы ли истории, рассказанные людьми о пресноводных монстрах. Джереми Уэйд на глазах у миллионов телезрителей плавает на дне с огромным панцирником-аллигатором, купается в бассейне, полном зубастых пираний, и извлекает из водных глубин настоящих водных чудовищ весом в десятки килограммов. Чтобы выяснить, действительно ли все эти существа так опасны, как говорят о них легенды, Джереми затевает экстремальную рыбалку по берегам знаменитых озер и рек Бразилии, Америки, Австралии и Германии. Он пытается разобраться, всегда ли пираньи так агрессивны по отношению к людям, как в 1976 году, когда на Амазонке эти прожорливые существа не дали выбраться из воды 39 пассажирам упавшего в воду автобуса. Отважный ведущий исследует повадки кошачьих сомов, которым молва приписывает способность заглатывать взрослого человека, и кровожадных акул-быков, заходящих в реки из морей и океанов. В озерах и реках содержится меньше 1% всего запаса воды на Земле, однако многое, что кроется в пресных водах планеты, до сих пор остается для нас неизведанным. Этот таинственный и опасный мир – неосвоенная территория для создания фильмов о дикой природе. Познакомьтесь с существами, которых вы не встретите во время обычной рыбалке на ближайшем озере, в программе «Речные монстры».
Продолжительность: 00:44:00
Качество видео: SATRip
Перевод: Одноголосый закадровый, профессиональный
Видеокодек: Xvid
Битрейт видео: ~2499 Кбит/сек
Размер кадра: 704х504
Аудиокодек: MP3
Битрейт аудио: 128 Кбит/сек        
       

MediaInfo:

Общее
Полное имя : E:\1. MEDIA CENTR\1. Кинозал\5. ДОКУМЕНТАЛКА\Речные монстры - Гигантский угорь.avi
Формат : AVI
Формат/Информация : Audio Video Interleave
Размер файла : 830 Мбайт
Продолжительность : 44 м.
Общий поток : 2639 Кбит/сек
Программа кодирования : MEncoder SVN-r30881(20100311-gcc4.3.3)
Библиотека кодирования : MPlayer
Видео
Идентификатор : 0
Формат : MPEG-4 Visual
Профиль формата : Advanced [email protected]
Параметр BVOP формата : 2
Параметр QPel формата : Нет
Параметр GMC формата : Без точки перехода
Параметр матрицы формата : Default (H.263)
Идентификатор кодека : XVID
Идентификатор кодека/Подсказка : XviD
Продолжительность : 44 м.
Битрейт : 2499 Кбит/сек
Ширина : 704 пикселя
Высота : 504 пикселя
Соотношение сторон : 1,397
Частота кадров : 24,000 кадра/сек
Цветовое пространство : YUV
Субдискретизация насыщенности : 4:2:0
Битовая глубина : 8 бит
Тип развёртки : Прогрессивная
Метод сжатия : С потерями
Бит/(Пиксели*Кадры) : 0.293
Размер потока : 786 Мбайт (95%)
Библиотека кодирования : XviD 1.2.1 (UTC 2008-12-04)
Аудио
Идентификатор : 1
Формат : MPEG Audio
Версия формата : Version 1
Профиль формата : Layer 3
Режим : Joint stereo
Расширение режима : MS Stereo
Идентификатор кодека : 55
Идентификатор кодека/Подсказка : MP3
Продолжительность : 44 м.
Вид битрейта : Постоянный
Битрейт : 128 Кбит/сек
Каналы : 2 канала
Частота : 44,1 КГц
Метод сжатия : С потерями
Задержка видео : 42 мс.
Размер потока : 40,3 Мбайт (5%)
Выравнивание : Соединение по промежуткам
Продолжительность промежутка : 26 мс. (0,63 видеокадр)
Время предзагрузки промежутка : 522 мс.
Библиотека кодирования : LAME3.98ЄЄЄЄ
Время раздачи: По мере возможности
Other forum [Profile] [PM]
Display posts from previous:    
Reply to topic

The time now is: Today 13:29

All times are GMT + 3 Hours



You cannot post new topics in this forum
You cannot reply to topics in this forum
You cannot edit your posts in this forum
You cannot delete your posts in this forum
You cannot vote in polls in this forum
You cannot attach files in this forum
You cannot download files in this forum