Today is a free download without charge Download

Культовое убийство - Я избежал смерти (2010) TVRip

Reply to topic
 
Author
Message

UndegraundMen ®

Longevity: 7 years 7 months

Posts: 25145

Торрент-статистика

Post 06-Jul-2013 06:14

[Quote]

Культовое убийство - Я избежал смерти (2010) TVRip - Режиссер / Телекомпания: Discovery
Год выпуска: 2010
Жанр: Документальный
Описание:
В Джонстауне (сектантское поселение в Гайане) организация из 909 членов «Народного Храма», возглавляемая Джимом Джонсом, совершила массовый суицид в 1978 году. Из 918 погибших 276 были дети.
В 1978 году в Народном храме Джима Джонса в Гайяне проживало около 1000 человек. Одна смелая женщина и ее семья смогли разработать план побега...
Продолжительность: 00:43:41
Качество видео: TVRip
Перевод: Одноголосый закадровый, профессиональный
Видеокодек: Xvid
Битрейт видео: ~765 Кбит/с
Размер кадра: 720х480
Аудиокодек: MP3
Битрейт аудио: 128 Кбит/с

MediaInfo:

General
Complete name : C:\Users\ANDROID\Desktop\КОНВЕРТЕР\Культовое убийство - Я избежал смерти.avi
Format : AVI
Format/Info : Audio Video Interleave
File size : 283 MiB
Duration : 43mn 41s
Overall bit rate : 905 Kbps
Writing application : MEncoder SVN-r30881(20100311-gcc4.3.3)
Writing library : MPlayer
Video
ID : 0
Format : MPEG-4 Visual
Format profile : Advanced [email protected]
Format settings, BVOP : 2
Format settings, QPel : No
Format settings, GMC : No warppoints
Format settings, Matrix : Default (H.263)
Codec ID : XVID
Codec ID/Hint : XviD
Duration : 43mn 41s
Bit rate : 765 Kbps
Width : 720 pixels
Height : 480 pixels
Display aspect ratio : 1.85:1
Original display aspect ratio : 1.85:1
Frame rate : 25.000 fps
Standard : NTSC
Color space : YUV
Chroma subsampling : 4:2:0
Bit depth : 8 bits
Scan type : Progressive
Compression mode : Lossy
Bits/(Pixel*Frame) : 0.089
Stream size : 239 MiB (85%)
Writing library : XviD 1.2.1 (UTC 2008-12-04)
Audio
ID : 1
Format : MPEG Audio
Format version : Version 1
Format profile : Layer 3
Mode : Joint stereo
Mode extension : MS Stereo
Codec ID : 55
Codec ID/Hint : MP3
Duration : 43mn 41s
Bit rate mode : Constant
Bit rate : 128 Kbps
Channel(s) : 2 channels
Sampling rate : 44.1 KHz
Compression mode : Lossy
Delay relative to video : 40ms
Stream size : 40.0 MiB (14%)
Alignment : Aligned on interleaves
Interleave, duration : 26 ms (0.65 video frame)
Interleave, preload duration : 522 ms
Writing library : LAME3.98
Скриншоты:        
       
Время раздачи: По мере возможности
Other forum [Profile] [PM]
Similar theme
Forum Topic Author Torrent Replies Last Post
./templates/default/images/folder_dl.gif Обучающая и научно-популярная литература Лотман Юрий Михайлович - "Письма русского путешественника" Карамзина и их место в развитии русской культуры [И. В. Калинин (ЛИ), (ЛИ), 1987 г., 192 kbps, MP3] Omen
1 | 0

0 | 736

1

2015-11-20 15:00
Omen Latest
Display posts from previous:    
Reply to topic

The time now is: Today 08:11

All times are GMT + 3 Hours



You cannot post new topics in this forum
You cannot reply to topics in this forum
You cannot edit your posts in this forum
You cannot delete your posts in this forum
You cannot vote in polls in this forum
You cannot attach files in this forum
You cannot download files in this forum