Today is a free download without charge Download

The Rolling Stones - Live at Glastonbury 2013 [2013, Rock, HDTV 1080i]

Reply to topic
 
Author
Message

Omen ®

Longevity: 8 years 3 months

Posts: 181087

Торрент-статистика

Post 05-Jul-2013 17:39

[Quote]

The Rolling Stones - Live at Glastonbury 2013 -Жанр: Rock
Продолжительность: 01:07:58-Треклист:
01. Miss You
02. Midnight Rambler (with Mick Taylor)
03. 2000 Light Years From Home
04. Sympathy For The Devil
05. Start Me Up
06. Tumbling Dice
07. Brown Sugar
Encore:
08. You Can't Always Get What You Want
09. (I Can't Get No) Satisfaction (with Mick Taylor)-Качество: HDTV 1080i
Контейнер: TS
Видео кодек: H.264
Аудио кодек: AC3
Видео: AVC, 1920x1080, 16:9, 9828 Кбит/сек, 25,000 кадров/сек
Аудио: AC-3, 192 Кбит/сек, 48,0 КГц, 2 канала-

Отчёт MediaInfo

ОбщееИдентификатор : 1 (0x1)Полное имя : C:\***\The Rolling Stones - Live at Glastonbury 2013.tsФормат : MPEG-TSРазмер файла : 5,01 ГбайтПродолжительность : 1 ч. 7 м.Режим общего битрейта : ПеременныйОбщий поток : 10,5 Мбит/секМаксимальный общий битрейт : 35,5 Мбит/сек
ВидеоИдентификатор : 4113 (0x1011)Идентификатор меню : 1 (0x1)Формат : AVCФормат/Информация : Advanced Video CodecПрофиль формата : [email protected]Параметр CABAC формата : ДаПараметр ReFrames формата : 4 кадраИдентификатор кодека : 27Продолжительность : 1 ч. 7 м.Вид битрейта : ПеременныйБитрейт : 9828 Кбит/секМаксимальный битрейт : 40,0 Мбит/секШирина : 1920 пикселейВысота : 1080 пикселейСоотношение сторон : 16:9Частота кадров : 25,000 кадров/секЦветовое пространство : YUVСубдискретизация насыщенности : 4:2:0Битовая глубина : 8 битТип развёртки : MBAFFБит/(Пиксели*Кадры) : 0.190Размер потока : 4,67 Гбайт (93%)Основные цвета : BT.709Характеристики трансфера : BT.709Коэффициенты матрицы : BT.709
АудиоИдентификатор : 4352 (0x1100)Идентификатор меню : 1 (0x1)Формат : AC-3Формат/Информация : Audio Coding 3Расширение режима : CM (complete main)Параметр Endianness формата : BigИдентификатор кодека : 129Продолжительность : 1 ч. 7 м.Вид битрейта : ПостоянныйБитрейт : 192 Кбит/секКаналы : 2 каналаРасположение каналов : Front: L RЧастота : 48,0 КГцБитовая глубина : 16 битМетод сжатия : С потерямиЗадержка видео : -170 мс.Размер потока : 93,4 Мбайт (2%)Язык : English

Скриншоты

Other forum [Profile] [PM]
Display posts from previous:    
Reply to topic

The time now is: Today 07:36

All times are GMT + 3 Hours



You cannot post new topics in this forum
You cannot reply to topics in this forum
You cannot edit your posts in this forum
You cannot delete your posts in this forum
You cannot vote in polls in this forum
You cannot attach files in this forum
You cannot download files in this forum