Today is a free download without charge Download

Убей меня снова / Kill Me Again (Джон Дал) (Боевик, Триллер, Драма, Криминал 1989) DVDRip [H.264]

Reply to topic
 
Author
Message

Omen ®

Longevity: 8 years 11 months

Posts: 181086

Торрент-статистика

Post 04-Jul-2013 19:46

[Quote]

Убей меня снова / Kill Me Again -«Her last request was his first mistake.»- Год выпуска: 1989
Жанр: Боевик, Триллер, Драма, Криминал
Производство: США/Propaganda Films
Описание фильма:
Обворожительная преступница Фэй вместе со своим дружком Винсом ограбила курьеров, перевозивших деньги мафии. «Вырубив» Винса, Фэй скрылась вместе с деньгами. Чтобы замести следы, она обращается за помощью к частному детективу Джеку и просит его сымитировать ее смерть.
Попав под власть чар Фэй, Джек соглашается, и как по нотам разыгрывает «иллюзию убийства». Фэй исчезает, а полиция, мафия и Винс начинают охотиться за Джеком, чтобы выяснить, где деньги и …«труп» Фэй.
Режиссер: Джон Дал
Сценарий: Джон Дал, Дэвид В. Уорфилд
Продюсер: Стив Голин, Сигуржон Сигватссон, Дэвид В. Уорфилд
Актеры: Пэт Маллиган, Ник Дмитрий, Майкл Мэдсен, Джоэнн Уэлли, Роберт Шух, Дуан Такер, Вэл Килмер, Молли Фланеджин, Доминик Динино, Дэниэл Дорсе
Продолжительность: 01:34:23
Качество видео: DVDRip
Перевод: Многоголосый закадровый

Дата мировой премьеры: 27 октября 1989
Дата выхода DVD релиза: 10 декабря 2009, «Новый Диск»
Видеокодек: MPEG-4 AVC/H.264
Битрейт видео: ~1756 Кбит/сек
Размер кадра: 720x544
Аудиокодек: AC3 5.1
Битрейт аудио: 448 kbps

MediaInfo:

Общее
Уникальный идентификатор : 177953210071540514989052945121603465969 (0x85E08AA624F27F39A2D8B73BDC57B2F1)
Полное имя : H:\Downloads\Убей меня снова.mkv
Формат : Matroska
Размер файла : 1,45 Гбайт
Продолжительность : 1 ч. 34 м.
Общий поток : 2206 Кбит/сек
Дата кодирования : UTC 2013-07-02 12:24:58
Программа кодирования : mkvmerge v6.0.0 ('Coming Up For Air') built on Jan 20 2013 09:52:00
Библиотека кодирования : libebml v1.3.0 + libmatroska v1.4.0
Видео
Идентификатор : 1
Формат : AVC
Формат/Информация : Advanced Video Codec
Профиль формата : [url=mailto:[email protected]][email protected][/url]
Параметр CABAC формата : Да
Параметр ReFrames формата : 8 кадров
Параметры GOP формата : M=2, N=3
Идентификатор кодека : V_MPEG4/ISO/AVC
Продолжительность : 1 ч. 34 м.
Битрейт : 1756 Кбит/сек
Ширина : 720 пикс.
Высота : 544 пикс.
Соотношение сторон : 4:3
Частота кадров : 25,000 кадр/сек
Цветовое пространство : YUV
Подвыборка цветности : 4:2:0
Битовая глубина : 8 бит
Тип развёртки : Прогрессивная
Бит/(Пиксели*Кадры) : 0.179
Размер потока : 1,13 Гбайт (78%)
Заголовок : Kill Me Again
Библиотека кодирования : x264 core 125 r2208 d9d2288
Настройки программы : cabac=1 / ref=8 / deblock=1:-1:-1 / analyse=0x3:0x133 / me=umh / subme=9 / psy=1 / psy_rd=1.00:0.10 / mixed_ref=1 / me_range=32 / chroma_me=1 / trellis=2 / 8x8dct=1 / cqm=0 / deadzone=21,11 / fast_pskip=0 / chroma_qp_offset=-3 / threads=6 / lookahead_threads=1 / sliced_threads=0 / nr=0 / decimate=1 / interlaced=0 / bluray_compat=0 / constrained_intra=0 / bframes=3 / b_pyramid=2 / b_adapt=2 / b_bias=0 / direct=3 / weightb=1 / open_gop=0 / weightp=2 / keyint=250 / keyint_min=25 / scenecut=40 / intra_refresh=0 / rc_lookahead=60 / rc=2pass / mbtree=1 / bitrate=1756 / ratetol=1.0 / qcomp=0.60 / qpmin=10 / qpmax=51 / qpstep=4 / cplxblur=20.0 / qblur=0.5 / ip_ratio=1.40 / aq=1:1.00
Язык : English
Аудио
Идентификатор : 2
Формат : AC-3
Формат/Информация : Audio Coding 3
Расширение режима : CM (complete main)
Идентификатор кодека : A_AC3
Продолжительность : 1 ч. 34 м.
Вид битрейта : Постоянный
Битрейт : 448 Кбит/сек
Каналы : 6 каналов
Расположение каналов : Front: L C R, Side: L R, LFE
Частота : 48,0 КГц
Битовая глубина : 16 бит
Метод сжатия : С потерями
Размер потока : 302 Мбайт (20%)
Заголовок : Профессиональный многоголосый
Язык : Russian
Скриншоты:                    
Other forum [Profile] [PM]
Display posts from previous:    
Reply to topic

The time now is: Today 14:56

All times are GMT + 3 Hours



You cannot post new topics in this forum
You cannot reply to topics in this forum
You cannot edit your posts in this forum
You cannot delete your posts in this forum
You cannot vote in polls in this forum
You cannot attach files in this forum
You cannot download files in this forum