Today is a free download without charge Download

Броненосец "Потёмкин" (Сергей Эйзенштейн, Григорий Александров) [1925, СССР, Драма, исторический, военный, Blu-ray disc] + Sub Eng

Reply to topic
 
Author
Message

Omen ®

Longevity: 8 years 10 months

Posts: 181086

Торрент-статистика

Post 03-Jul-2013 19:25

[Quote]

Броненосец "Потёмкин"
Страна: СССР
Студия: 1-ая фабрика Госкино
Жанр: Драма, исторический, военный
Год выпуска: 1925
Продолжительность: 01:11:48
Перевод: Не требуется
Cубтитры: английские
Режиссер: Сергей Эйзенштейн, Григорий Александров
В ролях: Владимир Уральский, Александр Антонов, Владимир Барский, Григорий Александров, Михаил Гоморов, Марусов, Иван Бобров, Репникова, Александр Левшин, Андрей Файт
Описание: Созданный в 1925 году и признанный лучшим фильмом всех времен и народов, "Броненосец Потемкин" продолжает оставаться одним из самых значительных произведений отечественного и мирового киноискусства. Его сюжет, основанный на подлинном историческом событии, образно выразил основные социальные тенденции ХХ века: массовое стремление к свободе, борьбу с тиранией, защиту человеческого достоинства, призыв к единению людей во имя равноправия. Новаторская форма фильма и сегодня оказывает глубокое влияние на развитие выразительных средств кино.
Доп. информация:
• Версия фильма с русским текстом титров - 01:11:48 (файл 00046.m2ts)
• Версия фильма с английским текстом титров - 01:12:12 (файл 00044.m2ts)
Бонусы:
Документальный фильм, рассказывающий о работе над реставрацией фильма (на немецком).
Фотогалерея.
Меню: английское, статичное, озвученное
Семпл
Тип релиза: Blu-ray disc
Контейнер: BDMV
Видео: MPEG-4 AVC, PAL, 1920x1080, 27656 kbps, 16:9, 23,976 fps
Аудио: Английский, DTS-HD MA, 5.1 ch, 48 kHz, 4151 kbps, 24-bit (DTS Core: 5.1 / 48 kHz / 1509 kbps / 24-bit)
Формат субтитров: prerendered (Blu-ray/PGS/SUP)

BD-Info

Disc Title: Battleship Potemkin 1925 Blu-ray
Disc Size: 43 365 400 976 bytes
Protection: AACS
BD-Java: No
BDInfo: 0.5.8
Notes:
BDINFO HOME:
Cinema Squid
http://www.cinemasquid.com/blu-ray/tools/bdinfo
INCLUDES FORUMS REPORT FOR:
AVS Forum Blu-ray Audio and Video Specifications Thread
http://www.avsforum.com/avs-vb/showthread.php?t=1155731
********************
PLAYLIST: 00004.MPLS
********************
Total Video Title Codec Length Movie Size Disc Size Bitrate Bitrate Main Audio Track Secondary Audio Track ----- ------ ------- -------------- -------------- ------- ------- ------------------ --------------------- 00004.MPLS AVC 1:12:12 18 006 675 456 43 365 400 976 33,25 27,40 DTS-HD Master 5.1 4151Kbps (48kHz/24-bit)
DISC INFO: Disc Title: Battleship Potemkin 1925 Blu-ray Disc Size: 43 365 400 976 bytes Protection: AACS BD-Java: No BDInfo: 0.5.8 PLAYLIST REPORT: Name: 00004.MPLS Length: 1:12:12.369 (h:m:s.ms) Size: 18 006 675 456 bytes Total Bitrate: 33,25 Mbps VIDEO: Codec Bitrate Description ----- ------- ----------- MPEG-4 AVC Video 27404 kbps 1080p / 23,976 fps / 16:9 / High Profile 4.1 AUDIO: Codec Language Bitrate Description ----- -------- ------- ----------- DTS-HD Master Audio English 4151 kbps 5.1 / 48 kHz / 4151 kbps / 24-bit (DTS Core: 5.1 / 48 kHz / 1509 kbps / 24-bit) SUBTITLES: Codec Language Bitrate Description ----- -------- ------- ----------- Presentation Graphics English 9,247 kbps FILES: Name Time In Length Size Total Bitrate ---- ------- ------ ---- ------------- 00045.M2TS 0:00:00.000 0:00:11.010 3 735 552 2 714 00044.M2TS 0:00:11.010 1:12:01.358 18 002 939 904 33 328 CHAPTERS: Number Time In Length Avg Video Rate Max 1-Sec Rate Max 1-Sec Time Max 5-Sec Rate Max 5-Sec Time Max 10Sec Rate Max 10Sec Time Avg Frame Size Max Frame Size Max Frame Time ------ ------- ------ -------------- -------------- -------------- -------------- -------------- -------------- -------------- -------------- -------------- -------------- 1 0:00:00.000 0:02:06.501 9 000 kbps 40 554 kbps 00:01:05.607 38 356 kbps 00:01:05.774 36 953 kbps 00:01:05.106 46 908 bytes 352 174 bytes 00:01:06.149 2 0:02:06.501 0:02:17.053 26 587 kbps 36 676 kbps 00:03:50.438 34 074 kbps 00:02:40.785 33 462 kbps 00:02:36.281 138 612 bytes 338 884 bytes 00:02:19.264 3 0:04:23.554 0:05:42.842 29 375 kbps 40 291 kbps 00:08:08.571 37 456 kbps 00:08:05.735 35 937 kbps 00:08:00.855 153 147 bytes 364 446 bytes 00:05:22.739 4 0:10:06.397 0:04:33.356 31 457 kbps 38 981 kbps 00:10:21.120 36 011 kbps 00:10:20.494 35 103 kbps 00:13:19.006 164 004 bytes 352 413 bytes 00:12:44.096 5 0:14:39.753 0:01:52.362 28 196 kbps 39 480 kbps 00:14:51.682 37 318 kbps 00:14:47.803 36 405 kbps 00:14:43.841 147 002 bytes 374 168 bytes 00:16:09.551 6 0:16:32.116 0:07:15.143 27 277 kbps 40 468 kbps 00:22:22.966 36 963 kbps 00:16:46.213 36 273 kbps 00:21:12.229 142 210 bytes 376 738 bytes 00:19:02.391 7 0:23:47.259 0:05:13.563 31 121 kbps 40 309 kbps 00:23:56.059 37 143 kbps 00:23:54.266 34 484 kbps 00:24:05.527 162 250 bytes 372 836 bytes 00:28:46.224 8 0:29:00.822 0:03:40.803 27 910 kbps 39 722 kbps 00:29:52.665 36 356 kbps 00:30:56.855 36 061 kbps 00:30:51.850 145 511 bytes 375 092 bytes 00:30:07.597 9 0:32:41.626 0:03:05.184 25 738 kbps 36 431 kbps 00:33:36.472 33 915 kbps 00:33:28.214 33 404 kbps 00:33:06.609 134 188 bytes 340 166 bytes 00:33:30.258 10 0:35:46.811 0:04:33.856 25 302 kbps 38 908 kbps 00:36:54.253 35 863 kbps 00:39:57.144 35 235 kbps 00:37:11.979 131 912 bytes 371 628 bytes 00:37:28.704 11 0:40:20.668 0:02:14.509 29 779 kbps 40 103 kbps 00:40:47.319 37 209 kbps 00:40:43.774 35 935 kbps 00:40:29.760 155 254 bytes 367 128 bytes 00:42:12.029 12 0:42:35.177 0:01:25.960 25 371 kbps 40 285 kbps 00:43:08.711 37 221 kbps 00:43:33.402 35 954 kbps 00:43:07.668 132 273 bytes 363 437 bytes 00:43:03.580 13 0:44:01.138 0:03:38.801 27 570 kbps 40 158 kbps 00:46:27.159 37 648 kbps 00:46:24.490 35 487 kbps 00:45:44.032 143 738 bytes 372 417 bytes 00:45:58.046 14 0:47:39.940 0:02:09.420 30 800 kbps 39 682 kbps 00:49:41.687 37 217 kbps 00:48:35.662 36 089 kbps 00:48:30.365 160 578 bytes 364 722 bytes 00:49:23.710 15 0:49:49.361 0:03:09.522 30 777 kbps 39 663 kbps 00:52:18.802 36 612 kbps 00:51:20.410 34 824 kbps 00:51:17.866 160 455 bytes 360 317 bytes 00:52:16.675 16 0:52:58.884 0:02:21.266 29 112 kbps 40 169 kbps 00:55:06.302 37 393 kbps 00:55:02.882 35 708 kbps 00:55:01.965 151 777 bytes 358 305 bytes 00:55:04.009 17 0:55:20.150 0:02:44.414 25 613 kbps 40 514 kbps 00:56:43.817 38 057 kbps 00:56:42.565 35 177 kbps 00:56:09.532 133 534 bytes 369 409 bytes 00:56:43.650 18 0:58:04.564 0:04:15.421 24 797 kbps 37 778 kbps 01:01:27.683 35 259 kbps 01:01:35.566 34 495 kbps 01:01:34.774 129 278 bytes 354 365 bytes 01:01:40.863 19 1:02:19.986 0:05:24.240 31 489 kbps 39 910 kbps 01:05:37.767 36 901 kbps 01:02:43.342 36 038 kbps 01:02:24.866 164 171 bytes 357 311 bytes 01:05:32.428 20 1:07:44.226 0:04:28.142 21 311 kbps 40 461 kbps 01:10:50.329 37 507 kbps 01:10:49.453 36 101 kbps 01:10:45.741 111 124 bytes 382 285 bytes 01:10:51.038 STREAM DIAGNOSTICS: File PID Type Codec Language Seconds Bitrate Bytes Packets ---- --- ---- ----- -------- -------------- -------------- ------------- ----- 00045.M2TS 4113 (0x1011) 0x1B AVC 10,886 739 1 005 736 5 601 00045.M2TS 4352 (0x1100) 0x86 DTS-HD MA eng (English) 10,886 1 579 2 148 640 13 429 00045.M2TS 4608 (0x1200) 0x90 PGS eng (English) 10,886 1 1 702 17 00044.M2TS 4113 (0x1011) 0x1B AVC 4321,234 27 473 14 839 771 589 80 712 027 00044.M2TS 4352 (0x1100) 0x86 DTS-HD MA eng (English) 4321,234 4 158 2 245 888 592 12 880 085 00044.M2TS 4608 (0x1200) 0x90 PGS eng (English) 4321,234 9 5 005 787 28 427
QUICK SUMMARY:
Disc Title: Battleship Potemkin 1925 Blu-ray
Disc Size: 43 365 400 976 bytes
Protection: AACS
BD-Java: No
Playlist: 00004.MPLS
Size: 18 006 675 456 bytes
Length: 1:12:12.369
Total Bitrate: 33,25 Mbps
Video: MPEG-4 AVC Video / 27404 kbps / 1080p / 23,976 fps / 16:9 / High Profile 4.1
Audio: English / DTS-HD Master Audio / 5.1 / 48 kHz / 4151 kbps / 24-bit (DTS Core: 5.1 / 48 kHz / 1509 kbps / 24-bit)
Subtitle: English / 9,247 kbps
********************
PLAYLIST: 00005.MPLS
********************
Total Video Title Codec Length Movie Size Disc Size Bitrate Bitrate Main Audio Track Secondary Audio Track ----- ------ ------- -------------- -------------- ------- ------- ------------------ --------------------- 00005.MPLS AVC 1:11:48 18 054 586 368 43 365 400 976 33,53 27,66 DTS-HD Master 5.1 4163Kbps (48kHz/24-bit)
DISC INFO: Disc Title: Battleship Potemkin 1925 Blu-ray Disc Size: 43 365 400 976 bytes Protection: AACS BD-Java: No BDInfo: 0.5.8 PLAYLIST REPORT: Name: 00005.MPLS Length: 1:11:48.303 (h:m:s.ms) Size: 18 054 586 368 bytes Total Bitrate: 33,53 Mbps VIDEO: Codec Bitrate Description ----- ------- ----------- MPEG-4 AVC Video 27656 kbps 1080p / 23,976 fps / 16:9 / High Profile 4.1 AUDIO: Codec Language Bitrate Description ----- -------- ------- ----------- DTS-HD Master Audio English 4163 kbps 5.1 / 48 kHz / 4163 kbps / 24-bit (DTS Core: 5.1 / 48 kHz / 1509 kbps / 24-bit) SUBTITLES: Codec Language Bitrate Description ----- -------- ------- ----------- Presentation Graphics English 9,298 kbps FILES: Name Time In Length Size Total Bitrate ---- ------- ------ ---- ------------- 00047.M2TS 0:00:00.000 0:00:11.010 3 735 552 2 714 00046.M2TS 0:00:11.010 1:11:37.292 18 050 850 816 33 604 CHAPTERS: Number Time In Length Avg Video Rate Max 1-Sec Rate Max 1-Sec Time Max 5-Sec Rate Max 5-Sec Time Max 10Sec Rate Max 10Sec Time Avg Frame Size Max Frame Size Max Frame Time ------ ------- ------ -------------- -------------- -------------- -------------- -------------- -------------- -------------- -------------- -------------- -------------- 1 0:00:00.000 0:02:06.501 9 339 kbps 39 963 kbps 00:02:05.166 38 061 kbps 00:01:05.774 36 642 kbps 00:01:05.106 48 672 bytes 352 024 bytes 00:01:08.693 2 0:02:06.501 0:02:17.053 26 701 kbps 36 676 kbps 00:03:50.438 34 074 kbps 00:02:40.785 33 462 kbps 00:02:36.281 139 206 bytes 338 884 bytes 00:02:19.264 3 0:04:23.554 0:05:42.842 29 449 kbps 40 291 kbps 00:08:08.571 37 456 kbps 00:08:05.735 35 938 kbps 00:08:01.189 153 534 bytes 364 446 bytes 00:05:22.739 4 0:10:06.397 0:04:33.356 31 498 kbps 38 981 kbps 00:10:21.120 36 297 kbps 00:13:24.553 35 309 kbps 00:13:22.468 164 217 bytes 352 413 bytes 00:12:44.096 5 0:14:39.753 0:01:52.362 28 190 kbps 39 721 kbps 00:14:47.803 37 467 kbps 00:14:47.970 36 612 kbps 00:14:43.841 146 970 bytes 372 906 bytes 00:16:08.550 6 0:16:32.116 0:07:15.143 27 379 kbps 40 469 kbps 00:22:22.966 36 973 kbps 00:16:46.213 36 348 kbps 00:21:12.229 142 740 bytes 376 738 bytes 00:19:02.391 7 0:23:47.259 0:05:13.563 31 138 kbps 40 311 kbps 00:23:56.059 37 134 kbps 00:23:54.266 34 968 kbps 00:24:05.652 162 340 bytes 368 588 bytes 00:28:41.219 8 0:29:00.822 0:03:40.803 28 054 kbps 39 722 kbps 00:29:52.665 36 325 kbps 00:30:56.855 36 046 kbps 00:30:51.850 146 262 bytes 375 095 bytes 00:30:07.597 9 0:32:41.626 0:03:05.184 25 780 kbps 36 431 kbps 00:33:36.472 33 921 kbps 00:33:28.214 33 404 kbps 00:33:06.609 134 404 bytes 340 166 bytes 00:33:30.258 10 0:35:46.811 0:04:33.856 25 456 kbps 38 908 kbps 00:36:54.253 35 862 kbps 00:39:57.144 35 259 kbps 00:37:11.979 132 718 bytes 371 631 bytes 00:37:28.704 11 0:40:20.668 0:02:14.509 29 830 kbps 40 100 kbps 00:40:47.319 37 198 kbps 00:40:43.774 35 935 kbps 00:40:29.760 155 520 bytes 367 128 bytes 00:42:12.029 12 0:42:35.177 0:01:25.960 25 420 kbps 40 047 kbps 00:43:08.711 37 038 kbps 00:43:33.402 35 841 kbps 00:43:07.668 132 530 bytes 359 853 bytes 00:43:01.370 13 0:44:01.138 0:03:38.801 27 591 kbps 40 156 kbps 00:46:27.159 37 685 kbps 00:46:24.490 35 502 kbps 00:45:44.032 143 849 bytes 372 415 bytes 00:45:58.046 14 0:47:39.940 0:02:09.420 30 810 kbps 39 674 kbps 00:49:41.687 37 228 kbps 00:48:35.662 36 127 kbps 00:48:30.365 160 629 bytes 364 722 bytes 00:49:23.710 15 0:49:49.361 0:03:09.522 30 866 kbps 39 663 kbps 00:52:18.969 36 249 kbps 00:51:20.535 34 739 kbps 00:51:17.741 160 921 bytes 360 317 bytes 00:52:16.675 16 0:52:58.884 0:02:21.266 29 171 kbps 40 826 kbps 00:55:06.302 37 568 kbps 00:55:02.882 35 880 kbps 00:55:01.965 152 083 bytes 364 291 bytes 00:53:32.250 17 0:55:20.150 0:02:44.414 25 664 kbps 40 514 kbps 00:56:43.817 37 957 kbps 00:56:42.565 35 179 kbps 00:56:09.532 133 799 bytes 369 409 bytes 00:56:43.650 18 0:58:04.564 0:04:15.421 24 847 kbps 37 925 kbps 01:01:27.683 35 259 kbps 01:01:35.566 34 495 kbps 01:01:34.774 129 540 bytes 354 365 bytes 01:01:40.863 19 1:02:19.986 0:05:24.240 31 491 kbps 39 936 kbps 01:05:37.767 36 880 kbps 01:02:43.342 36 057 kbps 01:02:24.866 164 181 bytes 371 703 bytes 01:06:36.742 20 1:07:44.226 0:04:04.077 23 960 kbps 40 460 kbps 01:10:50.329 37 542 kbps 01:10:49.453 36 127 kbps 01:10:45.866 124 939 bytes 382 285 bytes 01:10:51.038 STREAM DIAGNOSTICS: File PID Type Codec Language Seconds Bitrate Bytes Packets ---- --- ---- ----- -------- -------------- -------------- ------------- ----- 00047.M2TS 4113 (0x1011) 0x1B AVC 10,886 739 1 005 736 5 601 00047.M2TS 4352 (0x1100) 0x86 DTS-HD MA eng (English) 10,886 1 579 2 148 640 13 429 00047.M2TS 4608 (0x1200) 0x90 PGS eng (English) 10,886 1 1 702 17 00046.M2TS 4113 (0x1011) 0x1B AVC 4297,126 27 726 14 892 716 956 80 997 753 00046.M2TS 4352 (0x1100) 0x86 DTS-HD MA eng (English) 4297,126 4 170 2 240 039 276 12 844 704 00046.M2TS 4608 (0x1200) 0x90 PGS eng (English) 4297,126 9 5 005 787 28 427
QUICK SUMMARY:
Disc Title: Battleship Potemkin 1925 Blu-ray
Disc Size: 43 365 400 976 bytes
Protection: AACS
BD-Java: No
Playlist: 00005.MPLS
Size: 18 054 586 368 bytes
Length: 1:11:48.303
Total Bitrate: 33,53 Mbps
Video: MPEG-4 AVC Video / 27656 kbps / 1080p / 23,976 fps / 16:9 / High Profile 4.1
Audio: English / DTS-HD Master Audio / 5.1 / 48 kHz / 4163 kbps / 24-bit (DTS Core: 5.1 / 48 kHz / 1509 kbps / 24-bit)
Subtitle: English / 9,298 kbps
********************
PLAYLIST: 00006.MPLS
********************
Total Video Title Codec Length Movie Size Disc Size Bitrate Bitrate Main Audio Track Secondary Audio Track ----- ------ ------- -------------- -------------- ------- ------- ------------------ --------------------- 00006.MPLS AVC 0:42:23 7 114 979 328 43 365 400 976 22,38 21,00 DD AC3 2.0 320Kbps
DISC INFO: Disc Title: Battleship Potemkin 1925 Blu-ray Disc Size: 43 365 400 976 bytes Protection: AACS BD-Java: No BDInfo: 0.5.8 PLAYLIST REPORT: Name: 00006.MPLS Length: 0:42:23.574 (h:m:s.ms) Size: 7 114 979 328 bytes Total Bitrate: 22,38 Mbps VIDEO: Codec Bitrate Description ----- ------- ----------- MPEG-4 AVC Video 21002 kbps 1080i / 29,970 fps / 16:9 / High Profile 4.1 AUDIO: Codec Language Bitrate Description ----- -------- ------- ----------- Dolby Digital Audio English 320 kbps 2.0 / 48 kHz / 320 kbps FILES: Name Time In Length Size Total Bitrate ---- ------- ------ ---- ------------- 00048.M2TS 0:00:00.000 0:42:23.574 7 114 979 328 22 378 CHAPTERS: Number Time In Length Avg Video Rate Max 1-Sec Rate Max 1-Sec Time Max 5-Sec Rate Max 5-Sec Time Max 10Sec Rate Max 10Sec Time Avg Frame Size Max Frame Size Max Frame Time ------ ------- ------ -------------- -------------- -------------- -------------- -------------- -------------- -------------- -------------- -------------- -------------- 1 0:00:00.000 0:03:45.425 19 842 kbps 35 708 kbps 00:00:14.481 28 742 kbps 00:03:36.049 28 208 kbps 00:03:31.044 82 745 bytes 264 014 bytes 00:01:18.611 2 0:03:45.425 0:03:30.643 21 349 kbps 34 041 kbps 00:04:36.075 31 196 kbps 00:04:36.075 30 400 kbps 00:04:45.351 89 043 bytes 302 134 bytes 00:05:49.549 3 0:07:16.068 0:04:47.120 23 519 kbps 39 107 kbps 00:09:28.067 35 458 kbps 00:11:43.736 32 680 kbps 00:11:43.502 98 094 bytes 326 987 bytes 00:08:10.823 4 0:12:03.189 0:05:26.092 22 218 kbps 37 768 kbps 00:13:58.404 34 825 kbps 00:14:06.612 34 119 kbps 00:14:09.048 92 668 bytes 270 880 bytes 00:14:00.072 5 0:17:29.281 0:06:02.695 24 656 kbps 39 380 kbps 00:18:52.197 35 911 kbps 00:19:33.238 35 117 kbps 00:19:28.800 102 836 bytes 254 868 bytes 00:18:02.114 6 0:23:31.977 0:04:08.281 16 319 kbps 27 648 kbps 00:27:37.455 21 794 kbps 00:27:35.253 20 451 kbps 00:26:11.136 68 064 bytes 253 711 bytes 00:25:23.221 7 0:27:40.258 0:08:11.858 19 731 kbps 33 904 kbps 00:28:19.364 29 647 kbps 00:28:15.360 29 157 kbps 00:34:19.624 82 295 bytes 264 893 bytes 00:32:57.508 8 0:35:52.116 0:06:30.423 19 860 kbps 41 145 kbps 00:41:17.608 36 451 kbps 00:41:17.608 33 761 kbps 00:41:17.608 82 832 bytes 262 896 bytes 00:41:32.022 9 0:42:22.540 0:00:01.034 111 kbps 115 kbps 00:42:22.540 0 kbps 00:00:00.000 0 kbps 00:00:00.000 480 bytes 2 473 bytes 00:42:23.340 STREAM DIAGNOSTICS: File PID Type Codec Language Seconds Bitrate Bytes Packets ---- --- ---- ----- -------- -------------- -------------- ------------- ----- 00048.M2TS 4113 (0x1011) 0x1B AVC 2543,441 21 003 6 677 620 364 36 336 073 00048.M2TS 4352 (0x1100) 0x81 AC3 eng (English) 2543,441 320 101 742 080 635 888
QUICK SUMMARY:
Disc Title: Battleship Potemkin 1925 Blu-ray
Disc Size: 43 365 400 976 bytes
Protection: AACS
BD-Java: No
Playlist: 00006.MPLS
Size: 7 114 979 328 bytes
Length: 0:42:23.574
Total Bitrate: 22,38 Mbps
Video: MPEG-4 AVC Video / 21002 kbps / 1080i / 29,970 fps / 16:9 / High Profile 4.1
Audio: English / Dolby Digital Audio / 2.0 / 48 kHz / 320 kbps
********************
PLAYLIST: 00007.MPLS
********************
Total Video Title Codec Length Movie Size Disc Size Bitrate Bitrate Main Audio Track Secondary Audio Track ----- ------ ------- -------------- -------------- ------- ------- ------------------ --------------------- 00007.MPLS AVC 0:00:26 5 308 416 43 365 400 976 1,57 1,44
DISC INFO: Disc Title: Battleship Potemkin 1925 Blu-ray Disc Size: 43 365 400 976 bytes Protection: AACS BD-Java: No BDInfo: 0.5.8 PLAYLIST REPORT: Name: 00007.MPLS Length: 0:00:26.985 (h:m:s.ms) Size: 5 308 416 bytes Total Bitrate: 1,57 Mbps VIDEO: Codec Bitrate Description ----- ------- ----------- MPEG-4 AVC Video 1440 kbps 1080p / 23,976 fps / 16:9 / High Profile 4.1 FILES: Name Time In Length Size Total Bitrate ---- ------- ------ ---- ------------- 00052.M2TS 0:00:00.000 0:00:26.985 5 308 416 1 574 CHAPTERS: Number Time In Length Avg Video Rate Max 1-Sec Rate Max 1-Sec Time Max 5-Sec Rate Max 5-Sec Time Max 10Sec Rate Max 10Sec Time Avg Frame Size Max Frame Size Max Frame Time ------ ------- ------ -------------- -------------- -------------- -------------- -------------- -------------- -------------- -------------- -------------- -------------- 1 0:00:00.000 0:00:26.985 1 440 kbps 8 012 kbps 00:00:02.002 2 699 kbps 00:00:02.001 2 034 kbps 00:00:02.001 7 508 bytes 151 301 bytes 00:00:08.008 STREAM DIAGNOSTICS: File PID Type Codec Language Seconds Bitrate Bytes Packets ---- --- ---- ----- -------- -------------- -------------- ------------- ----- 00052.M2TS 4113 (0x1011) 0x1B AVC 26,902 1 444 4 857 362 26 740
QUICK SUMMARY:
Disc Title: Battleship Potemkin 1925 Blu-ray
Disc Size: 43 365 400 976 bytes
Protection: AACS
BD-Java: No
Playlist: 00007.MPLS
Size: 5 308 416 bytes
Length: 0:00:26.985
Total Bitrate: 1,57 Mbps
Video: MPEG-4 AVC Video / 1440 kbps / 1080p / 23,976 fps / 16:9 / High Profile 4.1

Скриншоты

Скриншоты доп. материалов

Other forum [Profile] [PM]

uschakov.yura

Gender:

Longevity: 9 years 4 months

Posts: 400

Location: Рыбинск Ярославской области

Торрент-статистика

Post 27-Sep-2013 21:20 (after 2 months 24 days)

[Quote]

Omen, Прости, пожалуйста, прошло почти 3 месяца и так и нет полного источника, а я люблю советскую классику, в которую безусловно входит Эйзенштейн, буду ждать.

_________________
uschakov.yura
Other forum [Profile] [PM]
Display posts from previous:    
Reply to topic

The time now is: Today 13:31

All times are GMT + 3 Hours



You cannot post new topics in this forum
You cannot reply to topics in this forum
You cannot edit your posts in this forum
You cannot delete your posts in this forum
You cannot vote in polls in this forum
You cannot attach files in this forum
You cannot download files in this forum