Today is a free download without charge Download

Астана. Прогулка недалеко от дома 23.06.2013 в 3Д / 3D (Александр Цвет / Alexandr TSvet) [2013, Развлекательтно-познавательный, hdtv] SideBySide / Горизонтальная стереопара

Reply to topic
 
Author
Message

Omen ®

Longevity: 8 years 8 months

Posts: 181087

Торрент-статистика

Post 02-Jul-2013 19:02

[Quote]

Астана. Прогулка недалеко от дома 23.06.2013
Год выпуска: 2013
Страна: Казахстан
Студия: ATS
Жанр: Развлекательтно-познавательный
Продолжительность: 00:11:36
Перевод: Не требуется
Русские субтитры: нет
Режиссер на русском: Александр Цвет
Режиссер на английском: Alexandr TSvet
Описание: Увы в сети последнее время не так уж и много видеоматериала в 3D формате! Но, появилась возможность снимать своё собственное 3D видео, которое не уступает по качеству картинки зарубежным видеофильмам. Это и познавательно, и интересно, да и если снимать с умом, то даже без голливудских суперэффектов видео очень приятно смотреть!
Приглашаю Вас вместе со мной немного прогуляться по частичке города Астаны (Астана - столица республики Казахстан).
Для полного погружения и эффекта присутствия звук оставлен как есть!
Бонусы: отсутствуют
Дополнительная информация по релизу: Оборудование для съёмки: Видеокамера Panasonic HDC-SDT750
Монтаж видео в программе Magix X4
Сэмпл: http://www.youtube.com/watch?feature=player_embedded&v=JxRLPV5Kc7M
Качество: Blu-Ray Disc
Контейнер: M2TS
Формат 3D: SideBySide / Горизонтальная стереопара
Порядок ракурсов: левый ракурс первый
Видео кодек: h.264
Аудио кодек: AC3
Видео: AVC, PAL, 1920*1080, VBR, 16:9, 18 Mbps, 25 fps
Аудио: AC-3, 2 canel stereo, 48.0 KHz, 384 Kbps
Субтитры: отсутствуют

MediaInfo

General
ID : 0 (0x0)
Complete name : Астана Прогулка недалеко от дома 23 06 2013.m2ts
Format : BDAV
Format/Info : Blu-ray Video
File size : 1.44 GiB
Duration : 11mn 36s
Overall bit rate mode : Variable
Overall bit rate : 17.8 Mbps
Maximum Overall bit rate : 48.0 Mbps
Video
ID : 4113 (0x1011)
Menu ID : 1 (0x1)
Format : AVC
Format/Info : Advanced Video Codec
Format profile : [email protected]
Format settings, CABAC : Yes
Format settings, ReFrames : 2 frames
Codec ID : 27
Duration : 11mn 36s
Bit rate mode : Variable
Bit rate : 16.7 Mbps
Maximum bit rate : 20.0 Mbps
Width : 1 920 pixels
Height : 1 080 pixels
Display aspect ratio : 16:9
Frame rate : 25.000 fps
Standard : PAL
Color space : YUV
Chroma subsampling : 4:2:0
Bit depth : 8 bits
Scan type : Interlaced
Scan order : Top Field First
Bits/(Pixel*Frame) : 0.322
Stream size : 1.35 GiB (94%)
Color primaries : BT.709-5, BT.1361, IEC 61966-2-4, SMPTE RP177
Transfer characteristics : BT.709-5, BT.1361
Matrix coefficients : BT.709-5, BT.1361, IEC 61966-2-4 709, SMPTE RP177
Audio
ID : 4352 (0x1100)
Menu ID : 1 (0x1)
Format : AC-3
Format/Info : Audio Coding 3
Mode extension : CM (complete main)
Format settings, Endianness : Big
Codec ID : 129
Duration : 11mn 36s
Bit rate mode : Constant
Bit rate : 384 Kbps
Channel(s) : 2 channels
Channel positions : Front: L R
Sampling rate : 48.0 KHz
Bit depth : 16 bits
Compression mode : Lossy
Stream size : 31.9 MiB (2%)

Скриншоты

Other forum [Profile] [PM]
Display posts from previous:    
Reply to topic

The time now is: Today 01:31

All times are GMT + 3 Hours



You cannot post new topics in this forum
You cannot reply to topics in this forum
You cannot edit your posts in this forum
You cannot delete your posts in this forum
You cannot vote in polls in this forum
You cannot attach files in this forum
You cannot download files in this forum