Today is a free download without charge Download

Сталинград в 3Д / Stalingrad 3D (Федор Бондарчук) [2013, военный, драма, боевик, DCPrip] Half SideBySide / Горизонтальная анаморфная стереопара

Reply to topic
 
Author
Message

Omen ®

Longevity: 8 years 8 months

Posts: 181087

Торрент-статистика

Post 02-Jul-2013 19:02

[Quote]

Сталинград / Stalingrad / Трейлер
Год выпуска: 2013
Страна: Россия
Жанр: военный, драма, боевик
Продолжительность: 00:02:20
Перевод: Субтитры
Русские субтитры: есть
Режиссер на русском: Федор Бондарчук
В ролях: Петр Федоров («Обитаемый остров», «Елки»), Томас Кречманн («Операция «Валькирия», «Особо опасен»), Сергей Бондарчук, Яна Студилина (сериалы «Белая гвардия» и «Воронины»), Мария Смольникова («Дочь»), Андрей Смоляков («Высоцкий. Спасибо, что живой»)
Описание: «Исторические события тектонического масштаба – войны, катастрофы, революции – всегда особенно ярко и выпукло проявляют человеческую натуру во всём её многообразии. В нашем фильме лучшие современные кинотехнологии дают возможность не только наблюдать за героями на фоне грандиозных, эпических событий, от которых порой перехватывает дыхание, но полностью погрузиться в атмосферу, эпоху, обстоятельства. Новая форма кинематографических приёмов позволяет вывести зрителя на уникальный уровень сопереживания и испытать подлинные эмоции - ощущения гордости, слёз радости, до кома в горле. Наш фильм - это взгляд современного человека на людей того времени как на живых, на наших с вами современников с их чувствами, страхами и надеждами без слоя бронзы или гранита. Без клишированного идеологического, пропагандистского подхода. Итак 1942 год. Сталинград…»
[Качество: DCPrip
Контейнер: MKV
Формат 3D: Half OverUnder / Горизонтальная анаморфная стереопара
Порядок ракурсов: левый ракурс первый
Видео кодек: h.264
Аудио кодек: AC3
Видео: MPEG4 Video (H264),1920х1080,24fps,68,9 Мбит/сек
Аудио: Rus, Dolby AC3 48000Hz 6ch

MediaInfo

Общее
Уникальный идентификатор : 220405856049266715598862397989572514088 (0xA5D09FB1E792E1CEA2D1B41E7DF31128)
Полное имя : C:\Users\Администратор\Desktop\STALINGRAD_TLR_3D.mkv
Формат : Matroska
Версия формата : Version 4 / Version 2
Размер файла : 1,15 Гбайт
Продолжительность : 2 м. 20 с.
Режим общего битрейта : Переменный
Общий поток : 70,8 Мбит/сек
Дата кодирования : UTC 2013-06-26 20:21:46
Программа кодирования : mkvmerge v6.1.0 ('Old Devil') built on Mar 2 2013 14:32:37
Библиотека кодирования : libebml v1.3.0 + libmatroska v1.4.0
Видео
Идентификатор : 1
Формат : AVC
Формат/Информация : Advanced Video Codec
Профиль формата : [email protected]
Параметр CABAC формата : Да
Параметр ReFrames формата : 4 кадра
Идентификатор кодека : V_MPEG4/ISO/AVC
Продолжительность : 2 м. 20 с.
Вид битрейта : Переменный
Битрейт : 68,9 Мбит/сек
Максимальный битрейт : 100,0 Мбит/сек
Ширина : 1920 пикселей
Высота : 1080 пикселей
Соотношение сторон : 16:9
Режим частоты кадров : Постоянный
Частота кадров : 24,000 кадра/сек
Стандарт вещания : NTSC
Цветовое пространство : YUV
Субдискретизация насыщенности : 4:2:0
Битовая глубина : 8 бит
Тип развёртки : Прогрессивная
Бит/(Пиксели*Кадры) : 1.385
Размер потока : 1,12 Гбайт (97%)
Заголовок : eng
Default : Да
Forced : Нет
Основные цвета : BT.709
Характеристики трансфера : BT.709
Коэффициенты матрицы : BT.709
Аудио
Идентификатор : 3
Формат : AC-3
Формат/Информация : Audio Coding 3
Расширение режима : CM (complete main)
Параметр Endianness формата : Big
Идентификатор кодека : A_AC3
Продолжительность : 2 м. 20 с.
Вид битрейта : Постоянный
Битрейт : 448 Кбит/сек
Каналы : 6 каналов
Расположение каналов : Front: L C R, Side: L R, LFE
Частота : 48,0 КГц
Битовая глубина : 16 бит
Метод сжатия : С потерями
Размер потока : 7,48 Мбайт (1%)
Default : Да
Forced : Нет
Текст
Идентификатор : 2
Формат : UTF-8
Идентификатор кодека : S_TEXT/UTF8
Идентификатор кодека/Информация : UTF-8 Plain Text
Язык : Russian
Default : Да
Forced : Нет

Скриншоты

Other forum [Profile] [PM]
Display posts from previous:    
Reply to topic

The time now is: Today 18:44

All times are GMT + 3 Hours



You cannot post new topics in this forum
You cannot reply to topics in this forum
You cannot edit your posts in this forum
You cannot delete your posts in this forum
You cannot vote in polls in this forum
You cannot attach files in this forum
You cannot download files in this forum