Today is a free download without charge Download

Rammstein - Рок над Волгой 2013 (2013-06-08) [2013, Industrial, HDCam]

Reply to topic
 
Author
Message

Omen ®

Longevity: 8 years 4 months

Posts: 181087

Торрент-статистика

Post 02-Jul-2013 19:01

[Quote]

Rammstein - Рок над Волгой 2013 (2013-06-08)
Жанр: Industrial
Продолжительность: 01:30:57
Год выпуска: 2013
Треклист:
1. Ich tu dir weh
2. Wollt Ihr Das Bett In Flammen Sehen
3. Keine lust
4. Sehnsucht
5. Asche Zu Asche
6. Feuer Frei!
7. Mein teil
8. Ohne dich
9. Wiener Blut
10. Du Riechst So Gut
11. Benzin
12. Links 2 3 4
13. Du Hast
14. Rammstein
15. Buck Dich
16. Ich Will
17. Mein Herz Brennt
18. Sonne
19. Pussy
Доп. информация:
и преобразован в формат MKV
Качество: HDCam
Контейнер: MKV
Аудио кодек: AC3
Видео: AVC, 1920x1080,12,1 Мбит/сек, 25 к/сек
Аудио: AC-3, 256 Кбит/сек, 48,0 КГц, 2 канала

Отчёт MediaInfo / BDInfo

ОбщееФормат : MatroskaВерсия формата : Version 4 / Version 2Размер файла : 16,0 ГбайтПродолжительность : 3 ч. 1 м.Режим общего битрейта : ПеременныйОбщий поток : 12,6 Мбит/секПрограмма кодирования : mkvmerge v6.3.0 ('You can't stop me!') built on Jun 28 2013 20:09:41Библиотека кодирования : libebml v1.3.0 + libmatroska v1.4.0
ВидеоИдентификатор : 1Формат : AVCФормат/Информация : Advanced Video CodecПрофиль формата : [email protected]Параметр CABAC формата : ДаПараметр ReFrames формата : 2 кадраПараметр GOP формата : M=1, N=12Идентификатор кодека : V_MPEG4/ISO/AVCПродолжительность : 3 ч. 1 м.Вид битрейта : ПеременныйБитрейт : 12,1 Мбит/секМаксимальный битрейт : 26,0 Мбит/секШирина : 1920 пикселейВысота : 1080 пикселейСоотношение сторон : 16:9Режим частоты кадров : ПостоянныйЧастота кадров : 25,000 кадров/секЧастота кадров в оригинале : 50,000 кадров/секЦветовое пространство : YUVСубдискретизация насыщенности : 4:2:0Битовая глубина : 8 битТип развёртки : ПрогрессивнаяБит/(Пиксели*Кадры) : 0.234Размер потока : 15,4 Гбайт (96%)Язык : RussianDefault : ДаForced : Нет
АудиоИдентификатор : 2Формат : AC-3Формат/Информация : Audio Coding 3Расширение режима : CM (complete main)Параметр Endianness формата : BigИдентификатор кодека : A_AC3Продолжительность : 3 ч. 1 м.Вид битрейта : ПостоянныйБитрейт : 256 Кбит/секКаналы : 2 каналаРасположение каналов : Front: L RЧастота : 48,0 КГцБитовая глубина : 16 битМетод сжатия : С потерямиРазмер потока : 333 Мбайт (2%)Default : ДаForced : Нет

Скриншоты



Other forum [Profile] [PM]
Display posts from previous:    
Reply to topic

The time now is: Today 08:49

All times are GMT + 3 Hours



You cannot post new topics in this forum
You cannot reply to topics in this forum
You cannot edit your posts in this forum
You cannot delete your posts in this forum
You cannot vote in polls in this forum
You cannot attach files in this forum
You cannot download files in this forum