Today is a free download without charge Download

Later with Jools Holland - Series 42 - Episode 3 (Phoenix, AlunaGeorge, Rokia Traore, Joe Walsh, Eric Church, Laura Marling, Petula Clark)[2013, Electronic, World Music, Southern rock, Folk rock, HDTV 1080i]

Reply to topic
 
Author
Message

Omen ®

Longevity: 8 years 3 months

Posts: 181087

Торрент-статистика

Post 02-Jul-2013 19:01

[Quote]


- Series 42 - Episode 3 -
(Phoenix, AlunaGeorge, Rokia Traore, Joe Walsh, Eric Church, Laura Marling, Petula Clark)


Жанр: Electronic, World Music, Southern rock, Folk rock
Продолжительность: 01:0:45+00:29:54
Год выпуска: 2013

Треклист

Live Show - Broadcast on the 23rd April 2013 00:29:54
01. Phoenix - Entertainment
02. AlunaGeorge - Attracting Flies
03. Rokia Traore - Kouma
04. Joe Walsh & Timothy B. Schmit - Interview
05. Laura Marling - Once
06. Eric Church - Drink in my Hand (incomplete)
07. Petula Clark - Lost in You
08. Pheonix - Trying to be Cool

Extended Show - Broadcast on the 26th April 2013 01:0:45
01. Phoenix - Entertainment
02. AlunaGeorge - Your Drums , Your Love
03. Rokia Traore - Kouma
04. Joe Walsh & Timothy B. Schmit - Interview
05. Eric Church - Drink in my Hand
06. Laura Marling - Master Hunter
07. Pheonix - Trying to be Cool
08. Rokia Traore - Melancolie
09. Petula Clark - Interview
10. AlunaGeorge - Attracting Flies
11. Petula Clark - Lost in You
12. Laura Marling - Once
13. Eric Church - Springsteen
14. Rokia Traore - Tuit Tuit
15. Pheonix - 1901
Качество: HDTV 1080i
Контейнер: TS
Видео кодек: H.264
Аудио кодек: AC3
Видео: MPEG4 Video (H264) 1920x1080 25fps 9252 Kbps
Аудио 1: Dolby AC3 48000Hz 6ch 384kbps
Аудио 2: Dolby AC3 48000Hz stereo 192kbps

Отчёт MediaInfo / BDInfo Live Show

GeneralID : 1 (0x1)Complete name : E:\Later with Jools Holland - Live Show - 23rd April 2013 .tsFormat : MPEG-TSFile size : 2.08 GiBDuration : 29mn 54sOverall bit rate mode : VariableOverall bit rate : 9 972 Kbps
VideoID : 5500 (0x157C)Menu ID : 1 (0x1)Format : AVCFormat/Info : Advanced Video CodecFormat profile : [email protected] settings, CABAC : YesFormat settings, ReFrames : 4 framesCodec ID : 27Duration : 29mn 54sBit rate mode : VariableBit rate : 9 285 KbpsMaximum bit rate : 15.0 MbpsWidth : 1 920 pixelsHeight : 1 080 pixelsDisplay aspect ratio : 16:9Frame rate : 25.000 fpsColor space : YUVChroma subsampling : 4:2:0Bit depth : 8 bitsScan type : MBAFFBits/(Pixel*Frame) : 0.179Stream size : 1.94 GiB (93%)
AudioID : 5501 (0x157D)Menu ID : 1 (0x1)Format : AC-3Format/Info : Audio Coding 3Mode extension : CM (complete main)Format settings, Endianness : BigCodec ID : 6Duration : 29mn 54sBit rate mode : ConstantBit rate : 192 KbpsChannel(s) : 2 channelsChannel positions : Front: L RSampling rate : 48.0 KHzBit depth : 16 bitsCompression mode : LossyStream size : 41.1 MiB (2%)Language : English

Отчёт MediaInfo / BDInfo Extended Show

GeneralID : 1 (0x1)Complete name : E:\Later with Jools Holland - Extended Show - 23rd April 2013.tsFormat : MPEG-TSFile size : 4.52 GiBDuration : 1h 3mnOverall bit rate mode : VariableOverall bit rate : 10.1 Mbps
VideoID : 5500 (0x157C)Menu ID : 1 (0x1)Format : AVCFormat/Info : Advanced Video CodecFormat profile : [email protected] settings, CABAC : YesFormat settings, ReFrames : 4 framesCodec ID : 27Duration : 1h 3mnBit rate mode : VariableBit rate : 9 252 KbpsMaximum bit rate : 15.0 MbpsWidth : 1 920 pixelsHeight : 1 080 pixelsDisplay aspect ratio : 16:9Frame rate : 25.000 fpsColor space : YUVChroma subsampling : 4:2:0Bit depth : 8 bitsScan type : MBAFFBits/(Pixel*Frame) : 0.178Stream size : 4.12 GiB (91%)
AudioID : 5501 (0x157D)Menu ID : 1 (0x1)Format : AC-3Format/Info : Audio Coding 3Mode extension : CM (complete main)Format settings, Endianness : BigCodec ID : 6Duration : 1h 3mnBit rate mode : ConstantBit rate : 384 KbpsChannel(s) : 6 channelsChannel positions : Front: L C R, Side: L R, LFESampling rate : 48.0 KHzBit depth : 16 bitsCompression mode : LossyStream size : 175 MiB (4%)Language : English
Other forum [Profile] [PM]
Display posts from previous:    
Reply to topic

The time now is: Today 11:40

All times are GMT + 3 Hours



You cannot post new topics in this forum
You cannot reply to topics in this forum
You cannot edit your posts in this forum
You cannot delete your posts in this forum
You cannot vote in polls in this forum
You cannot attach files in this forum
You cannot download files in this forum