Today is a free download without charge Download

Звездные войны: Эпизод 4 – Новая надежда / Star Wars: Episode IV - A New Hope (Джордж Лукас / George Lucas) [1977, фантастика, фэнтези, приключения, BDRip] [DUB] (СССР) + [MVO] (РТР / Лазер Видео)

Reply to topic
 
Author
Message

maxkiller ®

Gender:

Longevity: 8 years 8 months

Posts: 290

Торрент-статистика

Post 02-Jul-2013 15:21

[Quote]

Звездные войны: Эпизод 4 – Новая надежда / Star Wars: Episode IV - A New Hope
Год выпуска: 1977
Жанр: фантастика, боевик, приключения
Продолжительность: 02:04:45
Перевод 1: Профессиональный (дублированный "СССР")
Перевод 2: Профессиональный (многоголосый закадровый) [РТР / Лазер Видео]
Режиссер: Джордж Лукас / George Lucas
Актеры: Марк Хэмилл, Харрисон Форд, Кэрри Фишер,Питер Кашинг, Алек Гиннесс, Энтони Дэниелс, Кенни Бейкер, Питер Мейхью, Дэвид Праус, Джеймс Эрл Джонс и др.
Описание фильма: Татуин. Планета-пустыня. Уже постаревший рыцарь Джедай Оби Ван Кеноби спасает молодого Люка Скайуокера, когда тот пытается отыскать пропавшего дроида. С этого момента Люк осознает свое истинное назначение: он один из рыцарей Джедай. В то время как гражданская война охватила галактику, а войска повстанцев ведут бои против сил злого Императора, к Люку и Оби Вану присоединяется отчаянный пилот-наемник Хан Соло, и в сопровождении двух дроидов, R2D2 и C-3PO, этот необычный отряд отправляется на поиски предводителя повстанцев принцессы Леи. Героям предстоит отчаянная схватка с устрашающим Дартом Вейдером правой рукой Императора и его секретным оружием «Звездой Смерти».
КИНОПОИСК /
Качество видео: BDRip
Формат: AVI
Видео кодек: XviD
Аудио кодек: AC3
Видео: 720x304 (2.37:1), 23.976 fps, XviD build 65 ~1477 kbps avg, 0.28 bit/pixel
Аудио 1: 48 kHz, AC3 Dolby Digital, 2/0 (L,R) ch, ~192.00 kbps avg
Аудио 2: 48 kHz, AC3 Dolby Digital, 2/0 (L,R) ch, ~192.00 kbps avg

MI

E:\INTERNET\Star Wars. Episode IV.1977.BDRip_[DUB CCCP] + [MVO OPT].avi
General
Complete name : E:\INTERNET\Star Wars. Episode IV.1977.BDRip_[DUB CCCP] + [MVO OPT].avi
Format : AVI
Format/Info : Audio Video Interleave
File size : 1.63 GiB
Duration : 2h 4mn
Overall bit rate : 1 876 Kbps
Writing application : VirtualDubMod 1.5.10.3 (build 2550/release)
Writing library : VirtualDubMod build 2550/release
Video #0
ID : 0
Format : MPEG-4 Visual
Format profile : Advanced [email protected]
Format settings, BVOP : 1
Format settings, QPel : No
Format settings, GMC : No warppoints
Format settings, Matrix : Custom
Codec ID : XVID
Codec ID/Hint : XviD
Duration : 2h 4mn
Bit rate : 1 478 Kbps
Width : 720 pixels
Height : 304 pixels
Display aspect ratio : 2.35:1
Frame rate : 23.976 fps
Color space : YUV
Chroma subsampling : 4:2:0
Bit depth : 8 bits
Scan type : Progressive
Compression mode : Lossy
Bits/(Pixel*Frame) : 0.282
Stream size : 1.29 GiB (79%)
Writing library : XviD 65
Audio #1
ID : 1
Format : AC-3
Format/Info : Audio Coding 3
Mode extension : CM (complete main)
Format settings, Endianness : Big
Codec ID : 2000
Duration : 2h 4mn
Bit rate mode : Constant
Bit rate : 192 Kbps
Channel(s) : 2 channels
Channel positions : Front: L R
Sampling rate : 48.0 KHz
Bit depth : 16 bits
Compression mode : Lossy
Stream size : 171 MiB (10%)
Alignment : Split accross interleaves
Interleave, duration : 42 ms (1.00 video frame)
Interleave, preload duration : 500 ms
Audio #2
ID : 2
Format : AC-3
Format/Info : Audio Coding 3
Mode extension : CM (complete main)
Format settings, Endianness : Big
Codec ID : 2000
Duration : 2h 4mn
Bit rate mode : Constant
Bit rate : 192 Kbps
Channel(s) : 2 channels
Channel positions : Front: L R
Sampling rate : 48.0 KHz
Bit depth : 16 bits
Compression mode : Lossy
Stream size : 171 MiB (10%)
Alignment : Split accross interleaves
Interleave, duration : 42 ms (1.00 video frame)
Interleave, preload duration : 500 ms

Скриншоты

       
Other forum [Profile] [PM]
Similar theme
Forum Topic Author Torrent Replies Last Post
./templates/default/images/folder_dl.gif Зарубежное кино Изгой-один: Звёздные войны. Истории / Rogue One: A Star Wars Story (Гарет Эдвардс) [2016 г., фантастика, боевик, приключения, BDRip 1080p] DUB | Чистый звук Theseus
1 | 0

0 | 7726

7

2017-03-22 11:05
Theseus Latest
Display posts from previous:    
Reply to topic

The time now is: Today 12:11

All times are GMT + 3 Hours



You cannot post new topics in this forum
You cannot reply to topics in this forum
You cannot edit your posts in this forum
You cannot delete your posts in this forum
You cannot vote in polls in this forum
You cannot attach files in this forum
You cannot download files in this forum