Today is a free download without charge Download

Arctic Monkeys - Live at Glastonbury 2013 [2013, Indie Rock, HDTV 1080i]

Reply to topic
 
Author
Message

Omen ®

Longevity: 8 years 3 months

Posts: 181087

Торрент-статистика

Post 01-Jul-2013 17:58

[Quote]

Arctic Monkeys - Live at Glastonbury 2013 Доп. информация: Выступление группы Arctic Monkeys на музыкальном фестивале Glastonbury - 28 июня 2013 года.-Жанр: Indie Rock
Продолжительность: 01:24:04-Треклист::
01. Do I Wanna Know?
02. Brianstorm
03. Dancing Shoes
04. Don't Sit Down 'Cause I've Moved Your Chair
05. Teddy Picker
06. Crying Lightning
07. Brick by Brick
08. Fake Tales of San Francisco
09. She's Thunderstorms
10. Old Yellow Bricks
11. Pretty Visitors
12. I Bet You Look Good on the Dancefloor
13. Do Me a Favour
14. R U Mine?
15. Fluorescent Adolescent
16. A Certain Romance
Encore:
17. Cornerstone
18. Mardy Bum
19. When the Sun Goes Down
20. 505 (With Miles Kane)-Качество: HDTV 1080i
Контейнер: TS
Видео кодек: H.264
Аудио кодек: AC3
Видео: AVC, 1920x1080, 16:9, 11,2 Мбит/сек, 25,000 кадров/сек
Аудио: AC-3, 192 Кбит/сек, 48,0 КГц, 2 канала

Отчёт MediaInfo

ОбщееИдентификатор : 1 (0x1)Полное имя : C:\***\Arctic Monkeys - Live at Glastonbury 2013.tsФормат : MPEG-TSРазмер файла : 7,04 ГбайтПродолжительность : 1 ч. 24 м.Режим общего битрейта : ПеременныйОбщий поток : 12,0 Мбит/секМаксимальный общий битрейт : 35,5 Мбит/сек
ВидеоИдентификатор : 4113 (0x1011)Идентификатор меню : 1 (0x1)Формат : AVCФормат/Информация : Advanced Video CodecПрофиль формата : [email protected]Параметр CABAC формата : ДаПараметр ReFrames формата : 4 кадраИдентификатор кодека : 27Продолжительность : 1 ч. 24 м.Вид битрейта : ПеременныйБитрейт : 11,2 Мбит/секМаксимальный битрейт : 40,0 Мбит/секШирина : 1920 пикселейВысота : 1080 пикселейСоотношение сторон : 16:9Частота кадров : 25,000 кадров/секЦветовое пространство : YUVСубдискретизация насыщенности : 4:2:0Битовая глубина : 8 битТип развёртки : MBAFFПорядок развёртки : Верхнее поле первоеБит/(Пиксели*Кадры) : 0.216Размер потока : 6,58 Гбайт (93%)Основные цвета : BT.709Характеристики трансфера : BT.709Коэффициенты матрицы : BT.709
АудиоИдентификатор : 4352 (0x1100)Идентификатор меню : 1 (0x1)Формат : AC-3Формат/Информация : Audio Coding 3Расширение режима : CM (complete main)Параметр Endianness формата : BigИдентификатор кодека : 129Продолжительность : 1 ч. 24 м.Вид битрейта : ПостоянныйБитрейт : 192 Кбит/секКаналы : 2 каналаРасположение каналов : Front: L RЧастота : 48,0 КГцБитовая глубина : 16 битМетод сжатия : С потерямиЗадержка видео : 31 мс.Размер потока : 115 Мбайт (2%)Язык : English

Скриншоты

Other forum [Profile] [PM]
Display posts from previous:    
Reply to topic

The time now is: Today 07:15

All times are GMT + 3 Hours



You cannot post new topics in this forum
You cannot reply to topics in this forum
You cannot edit your posts in this forum
You cannot delete your posts in this forum
You cannot vote in polls in this forum
You cannot attach files in this forum
You cannot download files in this forum