Today is a free download without charge Download

Арн: Рыцарь-тамплиер / Arn - Tempelriddaren (Петер Флинт) [2007 г., боевик, драма, мелодрама, приключения, военный, BDRip720p]

Reply to topic
 
Author
Message

Delia ®

Gender:

Longevity: 9 years 6 months

Posts: 1821

Торрент-статистика

Post 26-Aug-2011 10:03

[Quote]

Арн: Рыцарь-тамплиерArn - Tempelriddaren Год выпуска: 2007
Страна: Германия, Дания, Швеция, Финляндия, Великобритания, Норвегия
Жанр: боевик, драма, мелодрама, приключения, военный
Продолжительность: 02:19:13
Перевод: Профессиональный (многоголосый, закадровый)
Режиссер: Петер Флинт
Продюссер: Вальдемар Бергендаль, Элистер Маклин-Кларк, Жан Марнелл
Сценарий: Ян Гиллоу, Ганс Гуннарссон
Бюджет: €25 000 000
Премьера в мире: 17 декабря 2007
В ролях: Йоаким Наттерквист, София Хелин, Стеллан Скарсгард, Микаэл Нюквист, Морган Аллинг, Свен-Бертиль Таубе, Биби Андерссон, Густаф Скарсгард, Саймон Кэллоу, Венсан Перес, Юлия Дуфвениус, Сванте Мартин, Ёрген Лангхелле, Томас В. Габриэльссон, Лотта Ларссон, Дуглас Йоханссон, Роберт Шёблум, Томас Больме, Йозефин Льюнгман, Ингмар Свенссон, Милинд Соман, Стивен Вэддингтон, Николас Болтон, Пер Мирберг, Барнеби Кэй
Описание: Арн, сын высокопоставленного шведского дворянина, заканчивает свое монастырское обучение и, в наказание за свою запретную любовь, отправляется в Священные Земли в качестве рыцаря-тамплиера. Там ему суждено принять участие в битве при Хатине и других событиях, связанных с тяжёлыми временами Иерусалимского королевства...
Качество: BDRip720p
Формат: MKV
Видео кодек: H.264
Аудио кодек: AC3
Видео: English, 4070 Кбит/сек, 1280*544 (2,35:1), в 24,000 кадр/сек, AVC ([email protected])
Аудио: Russian, 448 Кбит/сек, 48,0 КГц, 16 бит, 6 канала(ов), AC-3

MI:

Общее
Уникальный идентификатор : 232931971694358386927298253821912183773 (0xAF3D10E0BB4BDFC8A29811F4FA5673DD)
Полное имя : F:\торрент\Arn - Tempelriddaren (2007)BDRip720p.mkv
Формат : Matroska
Размер файла : 4,37 Гбайт
Продолжительность : 2 ч. 19 м.
Общий поток : 4496 Кбит/сек
Дата кодирования : UTC 2011-08-26 05:23:35
Программа кодирования : mkvmerge v4.9.1 ('Ich will') built on Jul 11 2011 23:53:15
Библиотека кодирования : libebml v1.2.1 + libmatroska v1.1.1
Видео
Идентификатор : 1
Формат : AVC
Формат/Информация : Advanced Video Codec
Профиль формата : [email protected]
Параметр CABAC формата : Да
Параметр ReFrames формата : 10 кадры
Идентификатор кодека : V_MPEG4/ISO/AVC
Продолжительность : 2 ч. 19 м.
Битрейт : 4070 Кбит/сек
Ширина : 1280 пикс.
Высота : 544 пикс.
Соотношение сторон : 2,35:1
Частота кадров : 24,000 кадр/сек
Цветовое пространство : YUV
Подвыборка цветности : 4:2:0
Битовая глубина : 8 бит
Тип развёртки : Прогрессивная
Бит/(Пиксели*Кадры) : 0.244
Размер потока : 3,85 Гбайт (88%)
Библиотека кодирования : x264 core 116 r2057 0ba8a9c
Настройки программы : cabac=1 / ref=10 / deblock=1:-3:-3 / analyse=0x3:0x133 / me=umh / subme=8 / psy=1 / psy_rd=1.10:0.10 / mixed_ref=1 / me_range=32 / chroma_me=1 / trellis=2 / 8x8dct=1 / cqm=0 / deadzone=21,11 / fast_pskip=0 / chroma_qp_offset=-3 / threads=6 / sliced_threads=0 / nr=0 / decimate=1 / interlaced=0 / bluray_compat=0 / constrained_intra=0 / bframes=6 / b_pyramid=2 / b_adapt=2 / b_bias=0 / direct=3 / weightb=1 / open_gop=0 / weightp=2 / keyint=250 / keyint_min=23 / scenecut=40 / intra_refresh=0 / rc_lookahead=50 / rc=2pass / mbtree=1 / bitrate=4070 / ratetol=1.0 / qcomp=0.60 / qpmin=10 / qpmax=55 / qpstep=4 / cplxblur=20.0 / qblur=0.5 / ip_ratio=1.40 / aq=1:1.00
Язык : English
Аудио
Идентификатор : 2
Формат : AC-3
Формат/Информация : Audio Coding 3
Расширение режима : CM (complete main)
Идентификатор кодека : A_AC3
Продолжительность : 2 ч. 19 м.
Вид битрейта : Постоянный
Битрейт : 448 Кбит/сек
Канал(ы) : 6 канала(ов)
Расположение каналов : Front: L C R, Side: L R, LFE
Частота : 48,0 КГц
Битовая глубина : 16 бит
Метод сжатия : С потерями
Размер потока : 446 Мбайт (10%)
Язык : Russian

Скриншоты

                   

_________________
Человек – это канат, натянутый между животным и сверхчеловеком, – канат над пропастью.
В человеке ценно то, что он мост, а не цель. Фридрих Ницше
Other forum [Profile] [PM]
Display posts from previous:    
Reply to topic

The time now is: Today 09:17

All times are GMT + 3 Hours



You cannot post new topics in this forum
You cannot reply to topics in this forum
You cannot edit your posts in this forum
You cannot delete your posts in this forum
You cannot vote in polls in this forum
You cannot attach files in this forum
You cannot download files in this forum