Today is a free download without charge Download

Discovery: Рецепт от болезни. Аллергия / The Body Invaders: Allergies (2001) DVDRip

Reply to topic
 
Author
Message

UndegraundMen ®

Longevity: 7 years 7 months

Posts: 25145

Торрент-статистика

Post 01-Jul-2013 06:01

[Quote]

Discovery: Рецепт от болезни. Аллергия / The Body Invaders: Allergies (2001) DVDRip - Режиссер / Телекомпания: Discovery
Русское название: Рецепт от болезни
Оригинальное название: The Body Invaders
Год выпуска: 2001
Жанр: Документальный, исследование, медицина.
Выпущено: США, Discovery Communications
Описание:
Аллергию часто называют болезнью цивилизации, «чумой III тысячелетия». По статистике, каждый пятый человек страдает этим недугом, который подчас делает жизнь просто невыносимой! Насморк, кашель, чихание, отеки, слезотечение – вот лишь некоторые сопутствующие симптомы. Аллергия также может быть смертельно опасной, став причиной анафилактического шока. Авторы программы в простой и увлекательной форме расскажут о том, что такое аллергия, почему она появляется, и дадут практические советы и рекомендации, как с ней бороться.
Режиссёр: Дэвид Падруш
Перевод: Профессиональный двухголосый закадровый
Продолжительность: ~ 00:50:19
Видеокодек: XVID
Битрейт видео: ~1744 kb/s
Размер кадра: 704 x 528
Качество видео: DVDRip
Аудиокодек: AC-3, 2ch.
Битрейт аудио: 192 kb/s

MediaInfo

Формат : AVI
Формат/Информация : Audio Video Interleave
Размер файла : 700 Мбайт
Продолжительность : 50 м.
Общий поток : 1946 Кбит/сек
Программа кодирования : VirtualDubMod 1.5.10.2 (build 2540/release)
Библиотека кодирования : VirtualDubMod build 2540/release
Видео
Идентификатор : 0
Формат : MPEG-4 Visual
Профиль формата : Advanced [email protected]
Параметр BVOP формата : 2
Параметр QPel формата : Нет
Параметр GMC формата : Без точки перехода
Параметр матрицы формата : Выборочная
Идентификатор кодека : XVID
Идентификатор кодека/Подсказка : XviD
Продолжительность : 50 м.
Битрейт : 1744 Кбит/сек
Ширина : 704 пикселя
Высота : 528 пикселей
Соотношение сторон : 4:3
Частота кадров : 25,000 кадров/сек
Цветовое пространство : YUV
Субдискретизация насыщенности : 4:2:0
Битовая глубина : 8 бит
Тип развёртки : Прогрессивная
Метод сжатия : С потерями
Бит/(Пиксели*Кадры) : 0.188
Размер потока : 628 Мбайт (90%)
Библиотека кодирования : XviD 1.2.1 (UTC 2008-12-04)
Аудио
Идентификатор : 1
Формат : AC-3
Формат/Информация : Audio Coding 3
Расширение режима : CM (complete main)
Идентификатор кодека : 2000
Продолжительность : 50 м.
Вид битрейта : Постоянный
Битрейт : 192 Кбит/сек
Каналы : 2 канала
Расположение каналов : Front: L R
Частота : 48,0 КГц
Битовая глубина : 16 бит
Метод сжатия : С потерями
Размер потока : 69,1 Мбайт (10%)
Выравнивание : Разделение по промежуткам
Продолжительность промежутка : 40 мс. (1,00 видеокадр)
Время предзагрузки промежутка : 500 мс.
Скриншоты:                    
Other forum [Profile] [PM]
Display posts from previous:    
Reply to topic

The time now is: Today 03:27

All times are GMT + 3 Hours



You cannot post new topics in this forum
You cannot reply to topics in this forum
You cannot edit your posts in this forum
You cannot delete your posts in this forum
You cannot vote in polls in this forum
You cannot attach files in this forum
You cannot download files in this forum