Today is a free download without charge Download

Discovery : Страшные взрывы / Explosions Gone Wrong (2009) SATRip

Reply to topic
 
Author
Message

UndegraundMen ®

Longevity: 7 years 7 months

Posts: 25145

Торрент-статистика

Post 01-Jul-2013 06:01

[Quote]

Discovery : Страшные взрывы / Explosions Gone Wrong (2009) SATRip - Режиссер / Телекомпания: Discovery
Русское название: Страшные взрывы
Оригинальное название: Explosions Gone Wrong
Год выпуска: 2009
Жанр: Документальный
Выпущено: Великобритания, Discovery Channel
Описание:
Они наносят удар без предупреждения, разрушая собственность и подвергая опасности жизни. Фильм исследует эти мощнейшие взрывы с точки зрения науки, выясняя каковы были их предпосылки, каким образом и почему они происходили, и когда взрывы становятся катастрофами.
Режиссёр: Gerald G. Massimei Jr.
Перевод: Одноголосый закадровый
Продолжительность: ~ 00:43:46
Видеокодек: DviX
Битрейт видео: ~1400 kb/s
Размер кадра: 640 x 480
Качество видео: SATRip
Аудиокодек: MP3, 2ch.
Битрейт аудио: 192 kb/s

MediaInfo

Формат : AVI
Формат/Информация : Audio Video Interleave
Размер файла : 501 Мбайт
Продолжительность : 43 м.
Общий поток : 1599 Кбит/сек
Библиотека кодирования : VirtualDub build 32559/release
Видео
Идентификатор : 0
Формат : MPEG-4 Visual
Параметр BVOP формата : Да
Параметр QPel формата : Нет
Параметр GMC формата : Без точки перехода
Параметр матрицы формата : Default (H.263)
Идентификатор кодека : DX50
Идентификатор кодека/Подсказка : DivX 5
Продолжительность : 43 м.
Битрейт : 1397 Кбит/сек
Ширина : 640 пикселей
Высота : 480 пикселей
Соотношение сторон : 4:3
Частота кадров : 25,000 кадров/сек
Цветовое пространство : YUV
Субдискретизация насыщенности : 4:2:0
Битовая глубина : 8 бит
Тип развёртки : Прогрессивная
Метод сжатия : С потерями
Бит/(Пиксели*Кадры) : 0.182
Размер потока : 438 Мбайт (87%)
Библиотека кодирования : DivX 1001
Аудио
Идентификатор : 1
Формат : MPEG Audio
Версия формата : Version 1
Профиль формата : Layer 3
Режим : Joint stereo
Расширение режима : MS Stereo
Идентификатор кодека : 55
Идентификатор кодека/Подсказка : MP3
Продолжительность : 43 м.
Вид битрейта : Постоянный
Битрейт : 192 Кбит/сек
Каналы : 2 канала
Частота : 48,0 КГц
Метод сжатия : С потерями
Размер потока : 60,1 Мбайт (12%)
Выравнивание : Разделение по промежуткам
Продолжительность промежутка : 40 мс. (1,00 видеокадр)
Время предзагрузки промежутка : 500 мс.
Библиотека кодирования : LAME3.96
Скриншоты:          Время раздачи: 24/7. До первых 5 скачавших.
Other forum [Profile] [PM]
Display posts from previous:    
Reply to topic

The time now is: Today 12:18

All times are GMT + 3 Hours



You cannot post new topics in this forum
You cannot reply to topics in this forum
You cannot edit your posts in this forum
You cannot delete your posts in this forum
You cannot vote in polls in this forum
You cannot attach files in this forum
You cannot download files in this forum