Today is a free download without charge Download

Этого не может быть (Юрий Бутырин) [1990, Мультфильм для взрослых, DVDRip]

Reply to topic
 
Author
Message

Omen ®

Longevity: 7 years 11 months

Posts: 181087

Торрент-статистика

Post 30-Jun-2013 18:58

[Quote]

Этого не может быть
Страна: СССР
Жанр: Мультфильм для взрослых
Продолжительность: 00:08:01
Год выпуска: 1990
Перевод: Не требуется
Русские субтитры: нет
Режиссёр: Юрий Бутырин
Роли озвучивали: Всеволод Абдулов
Описание: Мультфильм о человеке, чрезмерно любившем во всем порядок. Он не верил в происходящее и постоянно повторял: "Этого не может быть, потому что не может быть никогда". Ему не нравилось, как звучит музыка, как убирает дворник, и как ведет себя русалка ...
Качество: DVDRip
Формат: AVI
Видео: XviD, 640x480, 25.00fps, 1100 Kbps
Аудио: MPEG Audio Layer 3, 48000Hz, 2ch, 128Kbps
Субтитры: отсутствуют
Сравнение с TVRip

Подробные технические данные

ОбщееПолное имя : E:\MULTFILMS\Этого не может быть DVDRip.aviФормат : AVIФормат/Информация : Audio Video InterleaveРазмер файла : 71,1 МбайтПродолжительность : 8 м. 1 с.Общий поток : 1238 Кбит/секПрограмма кодирования : VirtualDubMod 1.5.10.2 (build 2540/release)Библиотека кодирования : VirtualDubMod build 2540/release
ВидеоИдентификатор : 0Формат : MPEG-4 VisualПрофиль формата : Advanced [email protected]Параметр BVOP формата : 1Параметр QPel формата : НетПараметр GMC формата : Без точки переходаПараметр матрицы формата : Default (MPEG)Идентификатор кодека : XVIDИдентификатор кодека/Подсказка : XviDПродолжительность : 8 м. 1 с.Битрейт : 1100 Кбит/секШирина : 640 пикселейВысота : 480 пикселейСоотношение сторон : 4:3Частота кадров : 25,000 кадров/секЦветовое пространство : YUVСубдискретизация насыщенности : 4:2:0Битовая глубина : 8 битТип развёртки : ПрогрессивнаяМетод сжатия : С потерямиБит/(Пиксели*Кадры) : 0.143Размер потока : 63,2 Мбайт (89%)Библиотека кодирования : XviD 1.2.1 (UTC 2008-12-04)
АудиоИдентификатор : 1Формат : MPEG AudioВерсия формата : Version 1Профиль формата : Layer 3Идентификатор кодека : 55Идентификатор кодека/Подсказка : MP3Продолжительность : 8 м. 1 с.Вид битрейта : ПостоянныйБитрейт : 128 Кбит/секКаналы : 2 каналаЧастота : 48,0 КГцМетод сжатия : С потерямиРазмер потока : 7,35 Мбайт (10%)Выравнивание : Соединение по промежуткамПродолжительность промежутка : 40 мс. (1,00 видеокадр)Время предзагрузки промежутка : 504 мс.Библиотека кодирования : LAME3.98rНастройки программы : -m s -V 4 -q 0 -lowpass 17 -b 128

Скриншоты


Other forum [Profile] [PM]
Display posts from previous:    
Reply to topic

The time now is: Today 08:44

All times are GMT + 3 Hours



You cannot post new topics in this forum
You cannot reply to topics in this forum
You cannot edit your posts in this forum
You cannot delete your posts in this forum
You cannot vote in polls in this forum
You cannot attach files in this forum
You cannot download files in this forum