Today is a free download without charge Download

The Beatles - Help! [1965, Rock, BDRip 1080p]

Reply to topic
 
Author
Message

Omen ®

Longevity: 8 years 4 months

Posts: 181087

Торрент-статистика

Post 30-Jun-2013 18:58

[Quote]

The Beatles - Help!
Жанр: Rock
Продолжительность: 01:32:13
Год выпуска: 1965
Описание: На помощь! Музыкальный фильм режиссёра Ричарда Лестера, вышел на экраны вслед за нашумевшим фильмом "Вечер после трудного дня". Но он не снискал такую бешеную популярность как первый фильм, хотя в нем опять же присутствовало много песен и шуток. Тем не менее, он пользовался неплохой популярностью, а сейчас даже входит в разряд классики. В фильме рассказывается об одной религиозной секте, которая поклонялась своей богине Каили. Для того, чтобы совершить жертвоприношение, на пальце человека, приносимого в жертву, должно быть священное кольцо. Именно оно и оказалось на пальце у ничего не подозревающего Ринго...
Треклист:
1. Help!
2. You`re Gonna Lose That Girl
3. You`ve Got To Hide Your Love Away
4. Ticket To Ride
5. The Night Before
6. I Need You
7. Another Girl
Качество: BDRip 1080p
Контейнер: MP4
Видео кодек: avc1
Аудио кодек: AAC
Видео: MPEG-4 1920x1080 10000 kbs 25 fps
Аудио: AAC 384 Kbs 48 KHz 2 ch

Отчёт MediaInfo / BDInfo

Help1080rus.mp4 General Complete name : I:\MY_HELP!\Help1080rus.mp4 Format : MPEG-4 Format profile : Base Media / Version 2 Codec ID : mp42 File size : 6.65 GiB Duration : 1h 32mn Overall bit rate : 10.3 Mbps Encoded date : UTC 2013-06-30 08:13:20 Tagged date : UTC 2013-06-30 08:13:20 Video #1 ID : 1 Format : AVC Format/Info : Advanced Video Codec Format profile : [email protected] Format settings, CABAC : Yes Format settings, ReFrames : 3 frames Codec ID : avc1 Codec ID/Info : Advanced Video Coding Duration : 1h 32mn Bit rate mode : Variable Bit rate : 9 953 Kbps Width : 1 920 pixels Height : 1 080 pixels Display aspect ratio : 16:9 Frame rate mode : Variable Frame rate : 25.025 fps Original frame rate : 25.000 fps Minimum frame rate : 0.000 fps Maximum frame rate : 25.000 fps Standard : PAL Color space : YUV Chroma subsampling : 4:2:0 Bit depth : 8 bits Scan type : Progressive Bits/(Pixel*Frame) : 0.192 Stream size : 6.40 GiB (96%) Language : English Encoded date : UTC 2013-06-30 08:13:20 Tagged date : UTC 2013-06-30 08:13:20 Color primaries : BT.709-5, BT.1361, IEC 61966-2-4, SMPTE RP177 Transfer characteristics : BT.709-5, BT.1361 Matrix coefficients : BT.709-5, BT.1361, IEC 61966-2-4 709, SMPTE RP177 Audio #2 ID : 2 Format : AAC Format/Info : Advanced Audio Codec Format version : Version 4 Format profile : LC Codec ID : 40 Duration : 1h 32mn Bit rate mode : Variable Bit rate : 384 Kbps Maximum bit rate : 576 Kbps Channel(s) : 2 channels Channel positions : Front: L R Sampling rate : 48.0 KHz Compression mode : Lossy Stream size : 253 MiB (4%) Language : English Encoded date : UTC 2013-06-30 08:13:20 Tagged date : UTC 2013-06-30 08:13:20

Скриншоты



Other forum [Profile] [PM]
Display posts from previous:    
Reply to topic

The time now is: Today 14:52

All times are GMT + 3 Hours



You cannot post new topics in this forum
You cannot reply to topics in this forum
You cannot edit your posts in this forum
You cannot delete your posts in this forum
You cannot vote in polls in this forum
You cannot attach files in this forum
You cannot download files in this forum