Today is a free download without charge Download

Noize MC - Live @ Н.Новгород 21.04.13 [2013, Hip-Hop, Alternative, HDCamRip]

Reply to topic
 
Author
Message

Omen ®

Longevity: 8 years 3 months

Posts: 181087

Торрент-статистика

Post 29-Jun-2013 22:59

[Quote]

Noize MC - Live @ Н.Новгород 21.04.13
Жанр: Hip-Hop, Alternative
Продолжительность: 2:58:31
Год выпуска: 2013
Съемка: Tomegatherion + Victors Film Studio
Описание: http://vk.com/event47914684
Полный концерт + бонус (видео-подарок от Нижнего Новгорода)
Качество: HDCamRip
Контейнер: MP4
Видео кодек: H.264
Аудио кодек: AAC
Видео: AVC; 1920x1080 (16:9); 7995 Kbps; 23,976 fps
Аудио: AAC LC; 317 Kbps; VBR; 2 ch; 16 bit

Сет-лист

3:50 - Когда-нибудь9:36 - Миша Козырев15:04 - Общага21:14 - Бритни Спирс27:25 - она уходит33:32 - Песня для Радио39:03 - На работе платят бабло43:26 - За закрытой дверью48:41 - На районе нету плана53:40 - С&Г58:37 - Накосячу1:03:00 - Девочка-Скинхед1:09:10 - Из окнас 1:13:53 по 1:16:10 - "предисловие"1:16:58 - Гимн Понаехавших Провинциалов1:20:57 - Жвачка1:26:07 - Танцi!1:30:07 - Суицид1:35:04 - Видео от нижегородцев1:39:45 - Это был дождь1:45:39 - Выдыхай1:50:23 - Ругань из-за стены1:56:27 - Тонкий Лед2:02:31 - Нету паспорта2:07:15 – Бассейн2:10:46 – Outro
Дальше снято одной камерой (файл Noize MC 21.04.2013 Н.Новгород 2.mp4):0:00 - Я глуп04:08 - Вселенная бесконечна08:30 - Yes Future12:29 - Устрой Destroy16:46 - Героин фест19:14 - У моей девчонки23:00 - Честное слово26:43 - Вот и все. Ну и что?30:49 - Заговор34:35 - Аренби37:48 - Рок - это кал!

Отчёт MediaInfo / BDInfo

GeneralComplete name : G:\Torrent\_Мои раздачи\Noize MC 21.04.2013 Н.Новгород\Noize MC 21.04.2013 Н.Новгород.mp4Format : MPEG-4Format profile : Base Media / Version 2Codec ID : mp42File size : 7.94 GiBDuration : 2h 16mnOverall bit rate mode : VariableOverall bit rate : 8 317 KbpsEncoded date : UTC 2013-06-22 15:37:43Tagged date : UTC 2013-06-22 15:37:43©TIM : 00:04:01:12©TSC : 24000©TSZ : 1001
VideoID : 1Format : AVCFormat/Info : Advanced Video CodecFormat profile : H[email protected] settings, CABAC : YesFormat settings, ReFrames : 3 framesCodec ID : avc1Codec ID/Info : Advanced Video CodingDuration : 2h 16mnSource duration : 2h 16mnBit rate : 7 995 KbpsWidth : 1 920 pixelsHeight : 1 080 pixelsDisplay aspect ratio : 16:9Frame rate mode : VariableFrame rate : 23.976 fpsMinimum frame rate : 23.976 fpsMaximum frame rate : 24.000 fpsStandard : NTSCColor space : YUVChroma subsampling : 4:2:0Bit depth : 8 bitsScan type : ProgressiveBits/(Pixel*Frame) : 0.161Stream size : 7.63 GiB (96%)Source stream size : 7.63 GiB (96%)Language : EnglishEncoded date : UTC 2013-06-22 15:37:43Tagged date : UTC 2013-06-22 15:37:43mdhd_Duration : 8201735Color primaries : BT.709-5, BT.1361, IEC 61966-2-4, SMPTE RP177Transfer characteristics : BT.709-5, BT.1361Matrix coefficients : BT.709-5, BT.1361, IEC 61966-2-4 709, SMPTE RP177
AudioID : 2Format : AACFormat/Info : Advanced Audio CodecFormat profile : LCCodec ID : 40Duration : 2h 16mnSource duration : 2h 16mnBit rate mode : VariableBit rate : 317 KbpsMaximum bit rate : 416 KbpsChannel(s) : 2 channelsChannel positions : Front: L RSampling rate : 48.0 KHzCompression mode : LossyStream size : 310 MiB (4%)Source stream size : 310 MiB (4%)Language : EnglishEncoded date : UTC 2013-06-22 15:37:43Tagged date : UTC 2013-06-22 15:37:43mdhd_Duration : 8201771

Скриншоты

Other forum [Profile] [PM]
Display posts from previous:    
Reply to topic

The time now is: Today 08:59

All times are GMT + 3 Hours



You cannot post new topics in this forum
You cannot reply to topics in this forum
You cannot edit your posts in this forum
You cannot delete your posts in this forum
You cannot vote in polls in this forum
You cannot attach files in this forum
You cannot download files in this forum