Today is a free download without charge Download

Лисенок. Эй, на том берегу! (Борис Тузанович) [1992, Мультфильм, DVB]

Reply to topic
 
Author
Message

Omen ®

Longevity: 7 years 11 months

Posts: 181087

Торрент-статистика

Post 28-Jun-2013 10:36

[Quote]

Лисенок. Эй, на том берегу!
Страна: Россия
Жанр: Рисованная анимация
Продолжительность: 00:09:01
Год выпуска: 1992
Русские субтитры: нет
Режиссёр: Борис Тузанович
Роли озвучивали: Л. Гнилова, Е. Герчаков, Р. Суховерко
Описание: Маленький Лисёнок увидел на другом берегу реки огонёк и спросил у Вороны: «Ты не знаешь, кто там живёт?». Ворона ответила: «Дракон! Трёхголовый монстр! Так все говорят!». И тут с того берега раздался тоскливый вой. Ворона улетела. Лисёнок подумал, что может быть нужна его помощь и поплыл на лодке на другой берег реки. Переплывая, он представлял себе, как выглядит говорящий трёхголовый дракон.
На том берегу Лисёнок увидел досочный забор, чей вход украшала табличка: «Осторожно злая собака». Калитку отворил старый сторожевой пёс по имени Дракон с ружьём и на цепи. Он жил здесь один и охранял дачу. А выл от одиночества. Лисёнок пригласил его приходить к ним в гости и позвал покататься на лодке. Пёс снял цепь и они поплыли по реке.
Лисенок. Эй, на том берегу!
Качество: DVB
Формат: MPEG-PS
Видео: MPEG2 Video 720x576 (4:3) 25.00fps 4 732 Kbps
Аудио: MPEG Audio 48000Hz. 2 channels. 192kbps
Субтитры: нет

Подробные технические данные

GeneralComplete name : D:\Video\Эй на том берегу.mpgFormat : MPEG-PSFile size : 331 MiBDuration : 9mn 0sOverall bit rate : 5 129 Kbps
VideoID : 224 (0xE0)Format : MPEG VideoFormat version : Version 2Format profile : [email protected] settings, Matrix : DefaultDuration : 9mn 0sBit rate mode : VariableBit rate : 4 734 KbpsNominal bit rate : 15.0 MbpsWidth : 720 pixelsHeight : 576 pixelsDisplay aspect ratio : 4:3Frame rate : 25.000 fpsStandard : PALColorimetry : 4:2:0Scan type : InterlacedScan order : Top Field FirstBits/(Pixel*Frame) : 0.457Stream size : 305 MiB (92%)
AudioID : 192 (0xC0)Format : MPEG AudioFormat version : Version 1Format profile : Layer 2Duration : 9mn 0sBit rate mode : ConstantBit rate : 192 KbpsChannel(s) : 2 channelsSampling rate : 48.0 KHzResolution : 16 bitsVideo delay : 15msStream size : 12.4 MiB (4%)

Скриншоты



Other forum [Profile] [PM]
Display posts from previous:    
Reply to topic

The time now is: Today 08:45

All times are GMT + 3 Hours



You cannot post new topics in this forum
You cannot reply to topics in this forum
You cannot edit your posts in this forum
You cannot delete your posts in this forum
You cannot vote in polls in this forum
You cannot attach files in this forum
You cannot download files in this forum