Today is a free download without charge Download

Про Матвея Кузьмича (Дмитрий Наумов, Ольга Розовска) [1990, Мультфильм для взрослых, кукольный., DVB]

Reply to topic
 
Author
Message

Omen ®

Longevity: 7 years 11 months

Posts: 181087

Торрент-статистика

Post 28-Jun-2013 10:36

[Quote]

Про Матвея Кузьмича
Страна: СССР, Союзтелефильм
Жанр: Мультфильм для взрослых, кукольный.
Продолжительность: 00:09:40
Год выпуска: 1990
Русские субтитры: нет
Режиссёр: Дмитрий Наумов, Ольга Розовска
Описание: Мультипликационный фильм для взрослых об одном дне председателя каолхоза в эпоху "перестройки и гласности".
Качество: DVB
Формат: MPEG-PS
Видео: MPEG2 Video 720x576 (4:3) 25.00fps 4 732 Kbps
Аудио: MPEG Audio 48000Hz. 2 channels. 192kbps
Субтитры: нет.

Подробные технические данные

GeneralComplete name : D:\Video\Про Матвея Кузьмича.mpgFormat : MPEG-PSFile size : 355 MiBDuration : 9mn 40sOverall bit rate : 5 128 Kbps
VideoID : 224 (0xE0)Format : MPEG VideoFormat version : Version 2Format profile : [email protected] settings, Matrix : DefaultDuration : 9mn 40sBit rate mode : VariableBit rate : 4 732 KbpsNominal bit rate : 15.0 MbpsWidth : 720 pixelsHeight : 576 pixelsDisplay aspect ratio : 4:3Frame rate : 25.000 fpsStandard : PALColorimetry : 4:2:0Scan type : InterlacedScan order : Top Field FirstBits/(Pixel*Frame) : 0.456Stream size : 327 MiB (92%)
AudioID : 192 (0xC0)Format : MPEG AudioFormat version : Version 1Format profile : Layer 2Duration : 9mn 40sBit rate mode : ConstantBit rate : 192 KbpsChannel(s) : 2 channelsSampling rate : 48.0 KHzResolution : 16 bitsVideo delay : 15msStream size : 13.3 MiB (4%)

Скриншоты



Other forum [Profile] [PM]
Display posts from previous:    
Reply to topic

The time now is: Today 11:25

All times are GMT + 3 Hours



You cannot post new topics in this forum
You cannot reply to topics in this forum
You cannot edit your posts in this forum
You cannot delete your posts in this forum
You cannot vote in polls in this forum
You cannot attach files in this forum
You cannot download files in this forum