Today is a free download without charge Download

Hurricane 2013 LIVE [2013, Rock/Metal, HDTV 720p]

Reply to topic
 
Author
Message

Omen ®

Longevity: 8 years 4 months

Posts: 181087

Торрент-статистика

Post 27-Jun-2013 21:30

[Quote]

Hurricane 2013 LIVE
Жанр: Rock/Metal
Продолжительность: 03:56:40
Год выпуска: 2013
Описание: Das Hurricane Festival am Rande der Kleinstadt Scheeßel gehört zu den angesagtesten Festivals in Deutschland. Jahr für Jahr versammelt das Festival ein eindrucksvolles Aufgebot internationaler Bands. Das dreitägige Festival findet in diesem Jahr zum 17. Mal statt. Auch 2013 stürmen wieder Tausende von Besuchern das Gelände der Motorrad-Sandrennbahn Eichenring und verwandeln es in ein großes musikalisches Spektakel. ZDFkultur ist mittendrin und überträgt vier Stunden live aus Scheeßel. Mehr als 80 Bands spielen auf den vier Bühnen. In diesem Jahr versammeln sich auf der Hurricane-Bühne folgende Headliner: Rammstein, Of Monsters And Men, The Smashing Pumpkins, Portishead, Queens Of The Stone Age, Arctic Monkeys, Billy Talent, Editors, NOFX, Deichkind, The Hives, Bloc Party, Sigur Rós und viele mehr.
Ежегодный музыкальный фестиваль, который проводится в Германии, в городе Шессель (нем. Scheeßel), примерно в 50 км от Бремена. Фестиваль, как правило, приходится на промежуток между 15-25 июня и занимает три дня: пятницу, субботу и воскресенье. Hurricane, стартовавший в первой половине 70-х в качестве фестиваля хиппи на зелёной лужайке, а затем прервавшийся на 20 лет, в период своего второго расцвета привлекает поклонников самой разнообразной музыки. На зелёную и синюю сцены фестиваля поднимаются хедлайнеры и самые именитые участники, на красной сцене выступают более «тяжеловесные» представители рок-музыки; белая сцена собирает под сводами своего шатра любителей различных направлений танцевальной и электронной музыки.
Доп. информация: Собственная запись прямого эфира со спутникового канала ZDF Kultur фестиваля ''Hurricane 2013'' 2013 jun22

Треклист

Gogol Bordello - Not A Crime
Gogol Bordello - Lost Innocent World
Gogol Bordello - Start Wearing Purple
Tegan & Sara - Now I'm All Messed Up
The National - Graceless
The National - Fake Empire
The National - Mr. November
Editors - Sugar
Editors - A Ton Of Love
Editors - Munich
Editors - Bones
Editors - Two Hearted Spider
Editors - An End Has A Start
Editors - Formaldehyde
Editors - Eat Raw Meat = Blood Drool
Editors - Smokers Qutside The Hospital Doors
Editors - The Racing Rats
Editors - Papillon
Editors - Honesty
Kasabian - I.D.
Kasabian - Club Foot
Kasabian - Re-wired
Kasabian - Empire
Kasabian - Praise You / L.S.F.
Kasabian - Switchblades Smiles
Kasabian - Vlad The Im Paler
Kasabian - Fire
Sigur Ros - Kveikur
Bloc Party - Banquet
Bloc Party - Helicopter
Ska-P - Full Gas
Ska-P - Consumo Gusto
Ska-P - A La Mierda
Ska-P - Mestizaje
Ska-P - Casposos
Ska-P - Se Acabo
Ska-P - Romereo El Madero
Ska-P - Nino Saldado
Ska-P - Cannabis
Ska-P - ?Quienes Sois?
Ska-P - Sexo Y Religion
Ska-P - El Vals Del Obredo
Ska-P - Intifada
Ska-P - El Gato Lopez
Качество: HDTV 720p
Контейнер: TS
Видео кодек: H.264
Аудио кодек: AC3
Видео: Mpeg4 AVC, 1280x720, 16:9, 12700 kbps, 50 fps Progressive
Аудио: AC3, 448 kbps, 48 kHz, stereo
Аудио 2: MP2, 256 kbps, 48 kHz, stereo
Аудио 3: MP2, 192 kbps, 48 kHz, stereo

Отчёт MediaInfo / BDInfo

GeneralID : 1 (0x1)Complete name : D:\Downloads\Hurricane 2013 LIVE.tsFormat : MPEG-TSFile size : 23.9 GiBDuration : 3h 56mnOverall bit rate mode : VariableOverall bit rate : 14.5 Mbps
VideoID : 6410 (0x190A)Menu ID : 1 (0x1)Format : AVCFormat/Info : Advanced Video CodecFormat profile : [email protected] settings, CABAC : YesFormat settings, ReFrames : 6 framesCodec ID : 27Duration : 3h 56mnBit rate : 12.7 MbpsWidth : 1 280 pixelsHeight : 720 pixelsDisplay aspect ratio : 16:9Frame rate : 50.000 fpsColor space : YUVChroma subsampling : 4:2:0Bit depth : 8 bitsScan type : ProgressiveBits/(Pixel*Frame) : 0.275Stream size : 20.9 GiB (87%)Color primaries : BT.709Transfer characteristics : BT.709Matrix coefficients : BT.709
Audio #1ID : 6420 (0x1914)Menu ID : 1 (0x1)Format : MPEG AudioFormat version : Version 1Format profile : Layer 2Codec ID : 3Duration : 3h 56mnBit rate mode : ConstantBit rate : 256 KbpsChannel(s) : 2 channelsSampling rate : 48.0 KHzCompression mode : LossyStream size : 433 MiB (2%)Language : German
Audio #2ID : 6421 (0x1915)Menu ID : 1 (0x1)Format : MPEG AudioFormat version : Version 1Format profile : Layer 2Codec ID : 3Duration : 3h 56mnBit rate mode : ConstantBit rate : 192 KbpsChannel(s) : 2 channelsSampling rate : 48.0 KHzCompression mode : LossyStream size : 325 MiB (1%)
Audio #3ID : 6422 (0x1916)Menu ID : 1 (0x1)Format : AC-3Format/Info : Audio Coding 3Mode extension : CM (complete main)Format settings, Endianness : BigCodec ID : 6Duration : 3h 56mnBit rate mode : ConstantBit rate : 448 KbpsChannel(s) : 2 channelsChannel positions : Front: L RSampling rate : 48.0 KHzBit depth : 16 bitsCompression mode : LossyStream size : 758 MiB (3%)Language : German
Audio #4ID : 6423 (0x1917)Menu ID : 1 (0x1)Format : MPEG AudioFormat version : Version 1Format profile : Layer 2Codec ID : 3Duration : 3h 56mnBit rate mode : ConstantBit rate : 192 KbpsChannel(s) : 2 channelsSampling rate : 48.0 KHzCompression mode : LossyStream size : 325 MiB (1%)Language : Multiple languages
TextID : 6430 (0x191E)-100Menu ID : 1 (0x1)Format : TeletextLanguage : German
MenuID : 6400 (0x1900)Menu ID : 1 (0x1)Duration : 3h 56mnList : 6410 (0x190A) (AVC) / 6420 (0x1914) (MPEG Audio, German) / 6421 (0x1915) (MPEG Audio) / 6422 (0x1916) (AC-3, German) / 6423 (0x1917) (MPEG Audio, Multiple languages) / 6430 (0x191E) ()Language : / German / / German / Multiple languages

Скриншоты

Other forum [Profile] [PM]
Display posts from previous:    
Reply to topic

The time now is: Today 05:41

All times are GMT + 3 Hours



You cannot post new topics in this forum
You cannot reply to topics in this forum
You cannot edit your posts in this forum
You cannot delete your posts in this forum
You cannot vote in polls in this forum
You cannot attach files in this forum
You cannot download files in this forum