Today is a free download without charge Download

VAMPS live 2012 [2013, J-rock, Blu-ray]

Reply to topic
 
Author
Message

Omen ®

Longevity: 8 years 3 months

Posts: 181087

Торрент-статистика

Post 27-Jun-2013 17:25

[Quote]

VAMPS live 2012
Страна: Japan
Жанр: J-rock
Продолжительность: 1:33:18
Год выпуска: 2013
Доп. информация:
Трэклист:
1. VAMPIRE DEPRESSION
2. KYUKETSU -SATSUGAI VAMPS Ver.-
3. REDRUM
4. VAMP ADDICTION
5. SECRET IN MY HEART
6. DEVIL SIDE
7. MADE IN HEAVEN
8. EUPHORIA
9. SWEET DREAMS
10. THE PAST
11. HUNTING
12. ANGEL TRIP
13. TROUBLE
14. LIVE WIRE
15. MIDNIGHT CELEBRATION
16. LOVE ADDICT
17. MEMORIES
18. HIDEAWAY
19. SEX BLOOD ROCK N' ROLL
Качество: HD
Контейнер: MKV
Видео кодек: H.264
Аудио кодек: AC3
Видео: MPEG4 Video (H264) 1920x1080 29.97fps
Аудио: Dolby AC3 48000Hz stereo

Отчёт MediaInfo / BDInfo

VideoID : 1Format : AVCFormat/Info : Advanced Video CodecFormat profile : [email protected] settings, CABAC : YesFormat settings, ReFrames : 4 framesCodec ID : V_MPEG4/ISO/AVCDuration : 1h 33mnBit rate : 8 916 KbpsWidth : 1 920 pixelsHeight : 1 080 pixelsDisplay aspect ratio : 16:9Frame rate : 29.970 fpsColor space : YUVChroma subsampling : 4:2:0Bit depth : 8 bitsScan type : ProgressiveBits/(Pixel*Frame) : 0.143Stream size : 5.81 GiB (91%)Writing library : x264 core 120Encoding settings : cabac=1 / ref=1 / deblock=1:0:0 / analyse=0x1:0x111 / me=hex / subme=2 / psy=1 / psy_rd=1.00:0.00 / mixed_ref=0 / me_range=16 / chroma_me=1 / trellis=0 / 8x8dct=0 / cqm=0 / deadzone=21,11 / fast_pskip=1 / chroma_qp_offset=0 / threads=6 / sliced_threads=0 / nr=0 / decimate=1 / interlaced=0 / bluray_compat=0 / constrained_intra=0 / bframes=3 / b_pyramid=2 / b_adapt=1 / b_bias=0 / direct=1 / weightb=1 / open_gop=0 / weightp=1 / keyint=300 / keyint_min=30 / scenecut=40 / intra_refresh=0 / rc_lookahead=10 / rc=crf / mbtree=1 / crf=20.0 / qcomp=0.60 / qpmin=3 / qpmax=69 / qpstep=4 / ip_ratio=1.40 / aq=1:1.00Language : EnglishDefault : YesForced : NoColor primaries : BT.709-5, BT.1361, IEC 61966-2-4, SMPTE RP177Transfer characteristics : BT.709-5, BT.1361Matrix coefficients : BT.709-5, BT.1361, IEC 61966-2-4 709, SMPTE RP177
AudioID : 2Format : AC-3Format/Info : Audio Coding 3Mode extension : CM (complete main)Codec ID : A_AC3Duration : 1h 33mnBit rate mode : ConstantBit rate : 640 KbpsChannel(s) : 2 channelsChannel positions : Front: L RSampling rate : 48.0 KHzBit depth : 16 bitsCompression mode : LossyStream size : 427 MiB (7%)Language : JapaneseDefault : YesForced : No
Menu00:00:00.000 : Chapter 100:01:56.783 : Chapter 200:06:49.542 : Chapter 300:10:22.288 : Chapter 400:14:13.485 : Chapter 500:17:41.827 : Chapter 600:21:59.051 : Chapter 700:26:39.130 : Chapter 800:30:19.450 : Chapter 900:35:02.100 : Chapter 1000:42:07.892 : Chapter 1100:48:03.947 : Chapter 1200:54:21.858 : Chapter 1300:59:06.075 : Chapter 1401:03:28.805 : Chapter 1501:07:21.037 : Chapter 1601:13:01.877 : Chapter 1701:19:15.417 : Chapter 1801:24:10.345 : Chapter 1901:27:25.540 : Chapter 2001:31:15.470 : Chapter 21

Скриншоты

Other forum [Profile] [PM]
Display posts from previous:    
Reply to topic

The time now is: Today 09:13

All times are GMT + 3 Hours



You cannot post new topics in this forum
You cannot reply to topics in this forum
You cannot edit your posts in this forum
You cannot delete your posts in this forum
You cannot vote in polls in this forum
You cannot attach files in this forum
You cannot download files in this forum