Today is a free download without charge Download

Зимняя сказка (Иван Иванов-Вано) [1945, сказка, детский, семейный, DVDScreener] Реставрация "Госфильмофонд", 2012

Reply to topic
 
Author
Message

Omen ®

Longevity: 7 years 11 months

Posts: 181087

Торрент-статистика

Post 27-Jun-2013 13:17

[Quote]

Зимняя сказка / Реставрация "Госфильмофонд", 2012
Страна: СССР
Студия: Союзмультфильм
Жанр: сказка, детский, семейный
Год выпуска: 1945
Продолжительность: 00:12:27
Cубтитры: нет
Режиссер: Иван Иванов-Вано
Описание: Наступила студёная суровая зима, скоро наступит Новый год. Лесные зверушки собрались его встречать. В этом им помогают Дед Мороз, Снегурочка и Снеговик.
Новогодняя сказка с музыкальными сценами вокруг новогодней ёлки, плясками и песнями. В мультфильме звучит музыка П. И. Чайковского.
Доп. информация: Последний советский мультфильм, снятый трёхцветным методом.
Релиз: Феникс-клуб. Рип - pmv. Исходный материал предоставил Некто Андрей.
Качество видео: DVDScreener
Формат видео: AVI
Видео: 720x544 (1.32:1), 25 fps, XviD build 50 ~1995 kbps avg, 0.20 bit/pixel
Аудио: 48 kHz, MPEG Layer 3, 1 ch, ~64.00 kbps avg

MediaInfo

бщее
Полное имя : H:\РАЗДАЧА НА ТОРРЕНТЕ\Sbornik.100.let.ote4estvennoi.animacii\Зимняя сказка (цв., 1945).avi
Формат : AVI
Формат/Информация : Audio Video Interleave
Размер файла : 184 Мбайт
Продолжительность : 12 м.
Общий поток : 2069 Кбит/сек
Программа кодирования : VirtualDubMod 1.5.10.3 | www.virtualdub-fr.org || (build 2550/release)
Библиотека кодирования : VirtualDubMod build 2550/release
Видео
Идентификатор : 0
Формат : MPEG-4 Visual
Профиль формата : Advanced [email protected]
Параметр BVOP формата : 3
Параметр QPel формата : Нет
Параметр GMC формата : Без точки перехода
Параметр матрицы формата : Default (H.263)
Идентификатор кодека : XVID
Идентификатор кодека/Подсказка : XviD
Продолжительность : 12 м.
Битрейт : 1995 Кбит/сек
Ширина : 720 пикселей
Высота : 544 пикселя
Соотношение сторон : 4:3
Частота кадров : 25,000 кадров/сек
Цветовое пространство : YUV
Субдискретизация насыщенности : 4:2:0
Битовая глубина : 8 бит
Тип развёртки : Прогрессивная
Метод сжатия : С потерями
Бит/(Пиксели*Кадры) : 0.204
Размер потока : 178 Мбайт (96%)
Библиотека кодирования : XviD 1.2.1 (UTC 2008-12-04)
Аудио
Идентификатор : 1
Формат : MPEG Audio
Версия формата : Version 1
Профиль формата : Layer 3
Идентификатор кодека : 55
Идентификатор кодека/Подсказка : MP3
Продолжительность : 12 м.
Вид битрейта : Постоянный
Битрейт : 64,0 Кбит/сек
Каналы : 1 канал
Частота : 48,0 КГц
Метод сжатия : С потерями
Задержка видео : 984 мс.
Размер потока : 5,70 Мбайт (3%)
Выравнивание : Соединение по промежуткам
Продолжительность промежутка : 40 мс. (1,00 видеокадр)
Время предзагрузки промежутка : 504 мс.

Скриншоты

Other forum [Profile] [PM]
Display posts from previous:    
Reply to topic

The time now is: Today 01:29

All times are GMT + 3 Hours



You cannot post new topics in this forum
You cannot reply to topics in this forum
You cannot edit your posts in this forum
You cannot delete your posts in this forum
You cannot vote in polls in this forum
You cannot attach files in this forum
You cannot download files in this forum