Today is a free download without charge Download

Золотая Лихорадка / The Gold Rush (1925) [Чарльз Чаплин, Комедия, Мелодрама, Приключения, Вестерн, Немое кино, BDRip 1080p]

Reply to topic
 
Author
Message

~ISPANEC~ ®

Longevity: 8 years 2 months

Posts: 8

Торрент-статистика

Post 24-Aug-2011 12:04

[Quote]

Золотая Лихорадка / The Gold Rush- Год выпуска: 26 июня 1925
Страна: США
Жанр: Комедия, Мелодрама, Приключения, Вестерн, Немое кино
Продолжительность: 01:11:48
Перевод: |Одноголосый,закадровый|Russian| + Оригинал|English||
Субтитры: английские и русские
Режиссер: Чарльз Чаплин
Продюсер: Чарльз Чаплин
Сценарий: Чарльз Чаплин
В ролях: Чарльз Чаплин, Макк Суэйн, Том Мюррэй, Генри Бергман, Малкольм Вейт, Джорджия Хейл, Джек Адамс, Фрэнк Адериас, Леона Адериас, Лиллиэн Адриан, Сэм Аллен, Альберт Остин, Хейни Конклин, Сид Громан, Лита Грэй, Джоан Лоуелл
Описание: История о злоключениях извечного любимца публики, маленького бродяги, который на этот раз отправляется на золотые прииски Аляски и как всегда порадует вас бесконечным калейдоскопом трюков и комических ситуаций.

Качество: BDRiP 1080
Формат: MKV
Видео кодек: MPEG4/ISO/AVC
Аудио кодек: AC3 5.1
Видео: , AVC at 10,6 Мбит/сек 1424 x 1080 (1.319) at 23.976 fps
Аудио:
1. Русский, AC-3 at 384 Кбит/сек 2 канала(ов), 48,0 КГц
2. Английский, AC-3 at 640 Кбит/сек 2 канала(ов), 48,0 КГц
-

MediaInfo

Код:
H:\фильмы\TGR_1080p.mkv
   General
      Complete name : H:\фильмы\TGR_1080p.mkv
      Format : Matroska
      File size : 5.95 GiB
      Duration : 1h 11mn
      Overall bit rate : 11.9 Mbps
      Movie name : The Gold Rush_1080p_HDReactor.org
      Encoded date : UTC 2010-05-19 11:10:07
      Writing application : mkvmerge v3.0.0 ('Hang up your Hang-Ups') built on Dec 12 2009 15:20:35
      Writing library : libebml v0.7.9 + libmatroska v0.8.1
   Video #1
      ID : 1
      Format : AVC
      Format/Info : Advanced Video Codec
      Format profile : [email protected]
      Format settings, CABAC : Yes
      Format settings, ReFrames : 3 frames
      Muxing mode : Container [email protected]
      Codec ID : V_MPEG4/ISO/AVC
      Duration : 1h 11mn
      Bit rate : 10.6 Mbps
      Nominal bit rate : 10.8 Mbps
      Width : 1 424 pixels
      Height : 1 080 pixels
      Display aspect ratio : 4:3
      Frame rate : 23.976 fps
      Resolution : 24 bits
      Colorimetry : 4:2:0
      Scan type : Progressive
      Bits/(Pixel*Frame) : 0.288
      Stream size : 5.31 GiB (89%)
      Writing library : x264 core 80 r1376M 3feaec2
      Encoding settings : cabac=1 / ref=4 / deblock=1:-3:-3 / analyse=0x3:0x113 / me=hex / subme=7 / psy=1 / psy_rd=1.0:0.2 / mixed_ref=1 / me_range=16 / chroma_me=1 / trellis=1 / 8x8dct=1 / cqm=0 / deadzone=21,11 / fast_pskip=1 / chroma_qp_offset=-3 / threads=3 / sliced_threads=0 / slices=4 / nr=0 / decimate=1 / mbaff=0 / constrained_intra=0 / bframes=7 / b_pyramid=1 / b_adapt=1 / b_bias=0 / direct=1 / wpredb=1 / wpredp=2 / keyint=24 / keyint_min=2 / scenecut=40 / rc_lookahead=24 / rc=2pass / mbtree=1 / bitrate=10844 / ratetol=1.0 / qcomp=0.60 / qpmin=10 / qpmax=51 / qpstep=4 / cplxblur=20.0 / qblur=0.5 / vbv_maxrate=40000 / vbv_bufsize=30000 / ip_ratio=1.40 / aq=1:1.00
      Language : English
   Audio #2
      ID : 2
      Format : AC-3
      Format/Info : Audio Coding 3
      Codec ID : A_AC3
      Duration : 1h 11mn
      Bit rate mode : Constant
      Bit rate : 384 Kbps
      Channel(s) : 2 channels
      Channel positions : L R
      Sampling rate : 48.0 KHz
      Stream size : 197 MiB (3%)
      Language : Russian
   Audio #3
      ID : 3
      Format : AC-3
      Format/Info : Audio Coding 3
      Codec ID : A_AC3
      Duration : 1h 11mn
      Bit rate mode : Constant
      Bit rate : 640 Kbps
      Channel(s) : 2 channels
      Channel positions : L R
      Sampling rate : 48.0 KHz
      Stream size : 329 MiB (5%)
      Language : English
   Text #4
      ID : 4
      Format : UTF-8
      Codec ID : S_TEXT/UTF8
      Codec ID/Info : UTF-8 Plain Text
      Language : Russian
   Text #5
      ID : 5
      Format : UTF-8
      Codec ID : S_TEXT/UTF8
      Codec ID/Info : UTF-8 Plain Text
      Language : English

Знаете ли Вы, что...

  • Единственная немая комедия Чаплина, снятая по заранее готовому сценарию.
  • На один съемочный день специально были наняты 2500 бродяг, которые сыграли золотоискателей.
  • Чаплин 27 раз перемонтировал картину, прежде чем пришел к окончательной версии.
  • Были испробованы несколько способов имитации снега, в том числе съёмки на настоящем снегу. Почти весь материал был два и более раз переснят «с разным снегом».

Скриншоты

    


Last edited by ~ISPANEC~ on 2012-03-15 16:12; edited 2 times in total
Other forum [Profile] [PM]

Nugeiro

Gender:

Longevity: 8 years 7 months

Posts: 1981

Location: Украина, Шостка

Торрент-статистика

Post 24-Aug-2011 12:44 (after 40 minutes)

[Quote]

~ISPANEC~
Постер в любой раздаче, нужно заливать в галерею трекера, http://img.dark-os.com.
Так как Вы подали заявку в модераторы Кино, то прошу ознакомится и с остальными правилами, http://dark-os.com/viewtopic.php?p=1485#1485

_________________
Other forum [Profile] [PM]

~ISPANEC~ ®

Longevity: 8 years 2 months

Posts: 8

Торрент-статистика

Post 24-Aug-2011 13:10 (after 26 minutes)

[Quote]

Oxygenius
спасибо ознакомился, НО не понимаю зачем их в галерею обязательно?
у меня постер был загружен на бесплатный постоянных хостинг картинок и ему можно доверять
думаю понятно от какого провайдера он-ну чтож раз так обязательно то залил его в галерею Smile
Other forum [Profile] [PM]

Nugeiro

Gender:

Longevity: 8 years 7 months

Posts: 1981

Location: Украина, Шостка

Торрент-статистика

Post 24-Aug-2011 14:12 (after 1 hour 2 minutes)

[Quote]

~ISPANEC~
Делается для того что бы лента не висла.

_________________


Last edited by Nugeiro on 2011-08-24 14:12; edited 1 time in total
Other forum [Profile] [PM]
Similar theme
Forum Topic Author Torrent Replies Last Post
./templates/default/images/folder_dl.gif Обучающее видео Криптовалюты. Золото цифрового века. Bitcoin. Биткоин. [2015, WEBRip, RUS] (Познавательное) Omen
1 | 0

0 | 1704

12

2015-10-22 00:00
Omen Latest
Display posts from previous:    
Reply to topic

The time now is: Today 08:50

All times are GMT + 3 Hours



You cannot post new topics in this forum
You cannot reply to topics in this forum
You cannot edit your posts in this forum
You cannot delete your posts in this forum
You cannot vote in polls in this forum
You cannot attach files in this forum
You cannot download files in this forum