Today is a free download without charge Download

ГАФТ - Праздник [2012, Indie-Rock/Avant-Rock, HDCam]

Reply to topic
 
Author
Message

Omen ®

Longevity: 8 years 4 months

Posts: 181087

Торрент-статистика

Post 27-Jun-2013 05:12

[Quote]

-ГАФТ - Праздник-Жанр: Indie-Rock/Avant-Rock
Продолжительность: 35:16
Год выпуска: 2013-Описание: Концерт в клубе "Зал Ожидания" 14.11.2012
1. Intro
2. Улыбки
3. Кувшинки
4. Праздник
5. Будда
6. Сирена
7. Листок
8. Ближе
9. Зима
10. Улыбайся-Доп. информация:-
Качество: HDCam
Контейнер: MP4
Видео кодек: H.264
Аудио кодек: AAC
Видео: AVC, 1920 x 1080, 16:9, 3 196 Kbps, 25.000 fps
Аудио: AAC, ~318 Kbps Kbps, 44.1 KHz, 2.0

Отчёт MediaInfo / BDInfo

GeneralComplete name : M:\ -= MussiC =-\Clips\ГАФТ - Праздник (2013).mp4Format : MPEG-4Format profile : Base Media / Version 2Codec ID : mp42File size : 888 MiBDuration : 35mn 16sOverall bit rate : 3 519 KbpsEncoded date : UTC 2013-03-22 10:15:30Tagged date : UTC 2013-03-22 10:15:30©TIM : 00:00:01:17©TSC : 25©TSZ : 1
VideoID : 1Format : AVCFormat/Info : Advanced Video CodecFormat profile : [email protected] settings, CABAC : YesFormat settings, ReFrames : 3 framesCodec ID : avc1Codec ID/Info : Advanced Video CodingDuration : 35mn 16sBit rate mode : VariableBit rate : 3 196 KbpsWidth : 1 920 pixelsHeight : 1 080 pixelsDisplay aspect ratio : 16:9Frame rate mode : ConstantFrame rate : 25.000 fpsStandard : PALColor space : YUVChroma subsampling : 4:2:0Bit depth : 8 bitsScan type : ProgressiveBits/(Pixel*Frame) : 0.062Stream size : 806 MiB (91%)Language : EnglishEncoded date : UTC 2013-03-22 10:15:30Tagged date : UTC 2013-03-22 10:15:30Color primaries : BT.709-5, BT.1361, IEC 61966-2-4, SMPTE RP177Transfer characteristics : BT.709-5, BT.1361Matrix coefficients : BT.709-5, BT.1361, IEC 61966-2-4 709, SMPTE RP177
AudioID : 2Format : AACFormat/Info : Advanced Audio CodecFormat version : Version 4Format profile : LCFormat settings, SBR : NoCodec ID : 40Duration : 35mn 16sBit rate mode : VariableBit rate : 318 KbpsMaximum bit rate : 400 KbpsChannel(s) : 2 channelsChannel positions : Front: L RSampling rate : 44.1 KHzStream size : 80.1 MiB (9%)Language : EnglishEncoded date : UTC 2013-03-22 10:15:30Tagged date : UTC 2013-03-22 10:15:30

Скриншоты



-
-

О группе:

Группа ГАФТ – музыкальный коллектив, сочетающий в своих выступлениях авангардный рок с академическим аккомпанементом струнного квартета «Валентин». Вместе с необычной манерой исполнения песен, поэзией в духе символистов и имиджем интеллигентов в галстуках-бабочках – на сцене рождается их оригинальный и запоминающийся образ.
За короткий срок существования молодая группа дважды выступила с концертами в «Зале Ожидания», записала 3 сингла и выпустила живой альбом «Праздник». В данный момент к записи готовятся ещё две песни.
Стройные мелодии группы ГАФТ создает поэт и вокалист Николай Яковлев.
Аранжировки пишет гитарист и соавтор текстов Серафим Синотов.
Вторая гитара – Сергей Езерский, ученик Александра Сенюшина(«The Sacrament»).
На безладовой бас-гитаре играет Михаил Юрченко, ранее игравший с группой «Substrata» (г. Владивосток, аудио-оформление к видео).
Барабанщик Игорь Бородин – талантливый самоучка, ранее игравший в группе «Абордаж».
Флейтист Иван Бакулин успел поработать с группами «Lanewin», «Чёрный Кузнец», ВИА «Пеньки». С группой «Silvercast» отыграл более 40 концертов в Санкт-Петербурге и Москве. Также является создателем и участником кавер-фестивалей, посвященных Майку Нопфлеру.
Группа ГАФТ выступает со струнным квартетом «Валентин».
Первая скрипка квартета – Евгения Бевз, лауреат всероссийского конкурса «Виват-талант», стипендиат специального фонда республики Беларусь по поддержке талантливой молодежи. Выступала в составе камерного струнного оркестра Venera Project, струнного квартета Престиж, играла вместе с группами «Arstidir» (Исландия), «iamthemorning» (Россия). Выступала сольно на исторических фестивалях по реконструкции в Беларуси.
Анастасия Смелова, вторая скрипка, играла в симфонических и камерных оркестрах музыкального колледжа им. Н.А. Римского-Корсакова.
Виолончелистка Оксана Зайцева – студенка Санкт-Петербургской Консерватории им. Н.А. Римского-Корсакова , лауреат многочисленным конкурсов и фестивалей, в том числе и международных (Байройт, Германия, 2011; Ялта, Украина, 2010; конкурс духовной музыки в Санкт-Петербурге). Оксана – участница камерных ансамблей, а также Международного симфонического оркестра Капеллы «Таврическая», на гастролях с которым она побывала во Франции, Голландии и Китае.
Автором всех партий квартета «Валентин» является альтист Илья Журавлев, ученик заслуженного артиста Украины В.Е. Рысина.
Состав группы:
Ритм-группа:
Николай Яковлев - вокал
Серафим Синотов - гитара
Сергей Езерский - гитара
Михаил Юрченко - бас
Игорь Бородин - ударные
Иван Бакулин - флейта
Струнный квартет:
Евгения Бевз - первая скрипка
Анастасия Смелова - вторая скрипка
Илья Журавлев / Екатерина Слабикова - альт
Оксана Зайцева - виолончель

-
- --
Other forum [Profile] [PM]
Display posts from previous:    
Reply to topic

The time now is: Today 21:19

All times are GMT + 3 Hours



You cannot post new topics in this forum
You cannot reply to topics in this forum
You cannot edit your posts in this forum
You cannot delete your posts in this forum
You cannot vote in polls in this forum
You cannot attach files in this forum
You cannot download files in this forum