Today is a free download without charge Download

Восставший из ада 2 / Hellbound: Hellraiser II (Тони Рэндел) [1988 г., ужасы, триллер, драма, BDRip720p]

Reply to topic
 
Author
Message

Delia ®

Gender:

Longevity: 9 years 6 months

Posts: 1821

Торрент-статистика

Post 24-Aug-2011 09:04

[Quote]

Восставший из ада 2Hellbound: Hellraiser II Год выпуска: 1988
Страна: Великобритания
Жанр: ужасы, триллер, драма
Продолжительность: 01:39:03
Перевод: Профессиональный (многоголосый, закадровый)
Режиссер: Тони Рэндел
Продюссер: Клайв Баркер, Дэвид Баррон, Кристофер Фигг
Сценарий: Клайв Баркер, Питер Аткинс
Премьера в мире: 9 сентября 1988
В ролях: Клэр Хиггинс, Эшли Лоуренс, Кеннет Крэнэм, Имоджен Бурман, Шон Чэпман, Уильям Хоуп, Даг Брэдли, Барби Вильде, Саймон Бэмфорд, Николас Винс
Описание: В наш мир возвращается мачеха Кристины Джулия, сгинувшая в геенне огненной в финале первой части фильма. Для восстановления своего физического облика ей приходится использовать те же малоприглядные средства, что в свое время и Фрэнку.В это же время Кристина, содержащаяся в психиатрической лечебнице, решает спасти своего томящегося в потусторонней неволе отца, для чего ей снова необходимо проникнуть за ту не всегда видимую и не всегда прочную грань, которая отделяет мир живых от мира не очень живых...
Качество: BDRip720p
Формат: MKV
Видео кодек: H.26x
Аудио кодек: AC3
Видео: English, 5614 Кбит/сек, 1280*688 (1,860), в 23,976 кадр/сек, AVC ([email protected])
Аудио: Russian, 384 Кбит/сек, 48,0 КГц, 16 бит, 6 канала(ов), AC-3
Аудио:English, 320 Кбит/сек, 48,0 КГц, 16 бит, 6 канала(ов), AC-3
Дополнительно отдельными файлами :
Russian 5.1 / 48 kHz / 448 kbps (DDV - Профессиональный (многоголосый, закадровый)
Russian 5.1 / 48 kHz / 448 kbps (Горчаков - Авторский (одноголосый, закадровый)
Russian 5.1 / 48 kHz / 384 kbps (Гаврилов - Авторский (одноголосый, закадровый)
Russian 2.0 / 48 kHz / 192 kbps (Гаврилов (ранний) - Авторский (одноголосый, закадровый)
Russian 2.0 / 48 kHz / 192 kbps [Живов - Авторский (одноголосый, закадровый)
Russian 5.1 / 48 kHz / 448 kbps (Гланц и Королева (двухголосый, закадровый)
German ,320 Кбит/сек, 48,0 КГц, 16 бит, 6 канала(ов), AC-3
Субтитры:русские (2 варианта), английские - srt

MI:

Общее
Уникальный идентификатор : 218336748803796847404934903328897591915 (0xA44220D4DEB9356CB5BB41EEE3756A6B)
Полное имя : F:\торрент\Hellraiser 2(1988)BDRip720p\Hellraiser 2(1988)BDRip720p.mkv
Формат : Matroska
Размер файла : 4,37 Гбайт
Продолжительность : 1 ч. 39 м.
Общий поток : 6317 Кбит/сек
Дата кодирования : UTC 2011-08-24 04:28:14
Программа кодирования : mkvmerge v4.9.1 ('Ich will') built on Jul 11 2011 23:53:15
Библиотека кодирования : libebml v1.2.1 + libmatroska v1.1.1
Видео
Идентификатор : 1
Формат : AVC
Формат/Информация : Advanced Video Codec
Профиль формата : [email protected]
Параметр CABAC формата : Да
Параметр ReFrames формата : 9 кадры
Идентификатор кодека : V_MPEG4/ISO/AVC
Продолжительность : 1 ч. 39 м.
Битрейт : 5614 Кбит/сек
Ширина : 1280 пикс.
Высота : 688 пикс.
Соотношение сторон : 1,860
Частота кадров : 23,976 кадр/сек
Цветовое пространство : YUV
Подвыборка цветности : 4:2:0
Битовая глубина : 8 бит
Тип развёртки : Прогрессивная
Бит/(Пиксели*Кадры) : 0.266
Размер потока : 3,80 Гбайт (87%)
Библиотека кодирования : x264 core 116 r2057 0ba8a9c
Настройки программы : cabac=1 / ref=9 / deblock=1:-3:-3 / analyse=0x3:0x133 / me=umh / subme=8 / psy=1 / psy_rd=1.00:0.15 / mixed_ref=1 / me_range=32 / chroma_me=1 / trellis=2 / 8x8dct=1 / cqm=0 / deadzone=21,11 / fast_pskip=0 / chroma_qp_offset=-3 / threads=6 / sliced_threads=0 / nr=0 / decimate=1 / interlaced=0 / bluray_compat=0 / constrained_intra=0 / bframes=8 / b_pyramid=2 / b_adapt=2 / b_bias=0 / direct=3 / weightb=1 / open_gop=0 / weightp=2 / keyint=250 / keyint_min=23 / scenecut=40 / intra_refresh=0 / rc_lookahead=50 / rc=2pass / mbtree=1 / bitrate=5614 / ratetol=1.0 / qcomp=0.60 / qpmin=10 / qpmax=55 / qpstep=4 / cplxblur=20.0 / qblur=0.5 / ip_ratio=1.40 / aq=1:1.00
Язык : English
Аудио #1
Идентификатор : 2
Формат : AC-3
Формат/Информация : Audio Coding 3
Расширение режима : CM (complete main)
Идентификатор кодека : A_AC3
Продолжительность : 1 ч. 39 м.
Вид битрейта : Постоянный
Битрейт : 384 Кбит/сек
Канал(ы) : 6 канала(ов)
Расположение каналов : Front: L C R, Side: L R, LFE
Частота : 48,0 КГц
Битовая глубина : 16 бит
Метод сжатия : С потерями
Размер потока : 272 Мбайт (6%)
Язык : Russian
Аудио #2
Идентификатор : 3
Формат : AC-3
Формат/Информация : Audio Coding 3
Расширение режима : CM (complete main)
Идентификатор кодека : A_AC3
Продолжительность : 1 ч. 39 м.
Вид битрейта : Постоянный
Битрейт : 320 Кбит/сек
Канал(ы) : 6 канала(ов)
Расположение каналов : Front: L C R, Side: L R, LFE
Частота : 48,0 КГц
Битовая глубина : 16 бит
Метод сжатия : С потерями
Размер потока : 227 Мбайт (5%)
Язык : English
Текст #1
Идентификатор : 4
Формат : UTF-8
Идентификатор кодека : S_TEXT/UTF8
Идентификатор кодека/Информация : UTF-8 Plain Text
Язык : Russian
Текст #2
Идентификатор : 5
Формат : UTF-8
Идентификатор кодека : S_TEXT/UTF8
Идентификатор кодека/Информация : UTF-8 Plain Text
Язык : Russian
Текст #3
Идентификатор : 6
Формат : UTF-8
Идентификатор кодека : S_TEXT/UTF8
Идентификатор кодека/Информация : UTF-8 Plain Text
Язык : English
Меню
00:00:00.000 : en:00:00:00.000
00:03:31.294 : en:00:03:31.294
00:13:42.739 : en:00:13:42.739
00:24:04.193 : en:00:24:04.193
00:34:14.886 : en:00:34:14.886
00:45:09.415 : en:00:45:09.415
00:54:38.233 : en:00:54:38.233
01:05:21.668 : en:01:05:21.668
01:16:02.683 : en:01:16:02.683
01:24:20.055 : en:01:24:20.055
01:36:10.056 : en:01:36:10.056

Скриншоты

                 

_________________
Человек – это канат, натянутый между животным и сверхчеловеком, – канат над пропастью.
В человеке ценно то, что он мост, а не цель. Фридрих Ницше


Last edited by Delia on 2011-10-03 07:35; edited 7 times in total
Other forum [Profile] [PM]
Display posts from previous:    
Reply to topic

The time now is: Today 11:22

All times are GMT + 3 Hours



You cannot post new topics in this forum
You cannot reply to topics in this forum
You cannot edit your posts in this forum
You cannot delete your posts in this forum
You cannot vote in polls in this forum
You cannot attach files in this forum
You cannot download files in this forum