Today is a free download without charge Download

Reminor - Чернозём [2013, Animation, Cyberpunk, Noir, HDRip, 720p]

Reply to topic
 
Author
Message

Omen ®

Longevity: 8 years 4 months

Posts: 181087

Торрент-статистика

Post 27-Jun-2013 01:08

[Quote]

Reminor | Чернозём- -Жанр: Animation, Cyberpunk, Noir-Год выпуска: 2013-Страна: Россия-Время звучания: 04:52-Описание: Представляем вашему вниманию наш первый клип. Жанр: анимация, киберпанк, нуар. Работа над клипом была начата в мае 2011 года, после выхода дебютного альбома. Специально для видео мы переаранжировали песню и переписали её в более тяжёлом звуке. Сюжет развивает концепцию иллюстрации для Чернозёма, которая в свою очередь обыгрывает идею песни. Основное влияние на атмосферу и стиль графики - манга "Blame!" японского художника Цутому Нихея, также можно отметить игру "Limbo" студии Playdead. Это первый опыт работы с анимацией, из-за чего было опробовано на прочность бесчётное количество граблей. Надеемся, что это не последний наш клип.
Лицам до 16 лет обязательно присутствие взрослого.
Приятного просмотра.
-Качество: HDRip, 720p
Контейнер: MKV
Видео: AVC, 1280х720, 29.97 fps, 2400 Kbps
Аудио: MP3, 44.1 KHz, 320 Kbps-

О группе

Группа Reminor образована в 2009 году. Целью было создание нового и оригинального звучания, которое можно было бы охарактеризовать как «акустиккор» - исполнение тяжёлых гитарных риффов в подчеркнуто акустическом ключе. Задача до сих пор не решена, поэтому мы по-прежнему экспериментируем со звуком. В аранжировках ценится разнообразие: не уходить в авангард и в целом оставлять традиционную песенную форму.
Суть названия - возвращение к некоему минорному, грустному настроению (не путать с депрессией и унынием). Чаще всего именно в таком состоянии человек анализирует, мыслит, понимает, а следовательно развивается. Название в общем характеризует музыку.
За время своего существования группа успела записать два полноформатных альбома. Большое внимание уделяется визуальной составляющей творчества – к каждой песне из альбома участником группы была сделана иллюстрация. Также летом 2013 года вышел анимационный клип на песню "Чернозём". В данный момент группа работает над созданием нового материала в более тяжёлом звуке.

Дополнительные ссылки

Дискография группы:
http:///*spam*//forum/viewtopic.php?t=3714960
Страничка художника:
http://vk.com/timbayo_art

Отчёт MediaInfo

GeneralComplete name : G:\Reminor - Black earth.mkvFormat : MatroskaFile size : 94.2 MiBDuration : 4mn 52sOverall bit rate : 2 697 KbpsEncoded date : UTC 2013-06-19 06:48:23Writing application : mkvmerge v2.4.0 ('Fumbling Towards Ecstasy') built on Oct 11 2008 20:13:15Writing library : libebml v0.7.7 + libmatroska v0.8.1
VideoID : 1Format : AVCFormat/Info : Advanced Video CodecFormat profile : [email protected] settings, CABAC : NoFormat settings, ReFrames : 1 frameMuxing mode : Container [email protected] ID : V_MPEG4/ISO/AVCDuration : 4mn 52sBit rate : 2 400 KbpsWidth : 1 280 pixelsHeight : 720 pixelsDisplay aspect ratio : 16:9Frame rate : 29.970 fpsOriginal frame rate : 59.940 fpsColor space : YUVChroma subsampling : 4:2:0Bit depth : 8 bitsScan type : ProgressiveBits/(Pixel*Frame) : 0.087Stream size : 81.2 MiB (86%)Writing library : x264 core 116 r2019 9cc407dEncoding settings : cabac=0 / ref=1 / deblock=1:0:0 / analyse=0x3:0x113 / me=hex / subme=7 / psy=1 / psy_rd=1.00:0.00 / mixed_ref=0 / me_range=16 / chroma_me=1 / trellis=1 / 8x8dct=1 / cqm=0 / deadzone=21,11 / fast_pskip=1 / chroma_qp_offset=-2 / threads=6 / sliced_threads=0 / nr=0 / decimate=1 / interlaced=0 / bluray_compat=0 / constrained_intra=0 / bframes=0 / weightp=2 / keyint=250 / keyint_min=25 / scenecut=40 / intra_refresh=0 / rc_lookahead=40 / rc=abr / mbtree=1 / bitrate=2400 / ratetol=1.0 / qcomp=0.60 / qpmin=0 / qpmax=69 / qpstep=4 / ip_ratio=1.40 / aq=1:1.00
AudioID : 2Format : MPEG AudioFormat version : Version 1Format profile : Layer 3Mode : Joint stereoMode extension : MS StereoCodec ID : A_MPEG/L3Codec ID/Hint : MP3Duration : 4mn 52sBit rate mode : ConstantBit rate : 320 KbpsChannel(s) : 2 channelsSampling rate : 44.1 KHzStream size : 11.2 MiB (12%)Writing library : LAME3.98.4

Скриншоты

-
Other forum [Profile] [PM]
Display posts from previous:    
Reply to topic

The time now is: Today 16:58

All times are GMT + 3 Hours



You cannot post new topics in this forum
You cannot reply to topics in this forum
You cannot edit your posts in this forum
You cannot delete your posts in this forum
You cannot vote in polls in this forum
You cannot attach files in this forum
You cannot download files in this forum