Today is a free download without charge Download

Лиса и волк (Александр Птушко) [1936, сказка, детский, семейный, DVDScreener] Реставрация "Госфильмофонд", 2011

Reply to topic
 
Author
Message

Omen ®

Longevity: 7 years 11 months

Posts: 181087

Торрент-статистика

Post 26-Jun-2013 21:04

[Quote]

Лиса и волк / Реставрация "Госфильмофонд", 2011
Страна: СССР
Студия: Мосфильм
Жанр: сказка, детский, семейный
Год выпуска: 1936
Продолжительность: 00:18:13
Cубтитры: нет
Режиссер: Александр Птушко
Описание: По мотивам русских народных сказок
Доп. информация: Особый интерес вызвала программа отреставрированных цветных мультфильмов, снятых 70 лет назад на Мосфильме по трехцветному методу Мершина. Первый опыт цветной анимации принадлежит «перу» режиссера Сарры Мокиль (художественный руководитель Александр Птушко). Мультфильм «Лиса и волк» был создан в 1936 году на киностудии «Мосфильм», и до войны успешно демонстрировался по всей стране. При восстановлении фильма выяснилось, что последний цветной эпизод не сохранился. Не удалось найти даже чёрно-белой копии, но зато сохранились фонограмма и монтажный лист. Благодаря этим находками специалисты по реставрации восстановили цветную версию фильма и практически, довели сказку до финала.
К слову сказать, Сарра Мокиль освежила сказку креативным решением. Лиса, к примеру, чтобы облегчить себе доставку теленка, из пня профессионально выпиливает колеса для тележки, а когда теленка съедает серый волк, то от него остаются ни кожа, да кости, а сдутая оболочка, как у резиновой игрушки.
Релиз: Феникс-клуб. Рип - pmv. Исходный материал предоставил Некто Андрей.
Качество видео: DVDScreener
Формат видео: AVI
Видео: 720x544 (1.32:1), 25 fps, XviD build 50 ~1999 kbps avg, 0.20 bit/pixel
Аудио: 48 kHz, MPEG Layer 3, 2 ch, ~128.00 kbps avg

MediaInfo

General
Complete name : C:\Sbornik.100.let.ote4estvennoi.animacii\Лиса и волк (цв., 1936).avi
Format : AVI
Format/Info : Audio Video Interleave
File size : 270 MiB
Duration : 18mn 13s
Overall bit rate : 2 074 Kbps
Writing application : VirtualDubMod 1.5.10.3 | www.virtualdub-fr.org || (build 2550/release)
Writing library : VirtualDubMod build 2550/release
Video
ID : 0
Format : MPEG-4 Visual
Format profile : Advanced [email protected]
Format settings, BVOP : 3
Format settings, QPel : No
Format settings, GMC : No warppoints
Format settings, Matrix : Default (H.263)
Codec ID : XVID
Codec ID/Hint : XviD
Duration : 18mn 13s
Bit rate : 2 000 Kbps
Width : 720 pixels
Height : 544 pixels
Display aspect ratio : 4:3
Frame rate : 25.000 fps
Color space : YUV
Chroma subsampling : 4:2:0
Bit depth : 8 bits
Scan type : Progressive
Compression mode : Lossy
Bits/(Pixel*Frame) : 0.204
Stream size : 261 MiB (96%)
Writing library : XviD 1.2.1 (UTC 2008-12-04)
Audio
ID : 1
Format : MPEG Audio
Format version : Version 1
Format profile : Layer 3
Codec ID : 55
Codec ID/Hint : MP3
Duration : 18mn 13s
Bit rate mode : Constant
Bit rate : 64.0 Kbps
Channel(s) : 1 channel
Sampling rate : 48.0 KHz
Compression mode : Lossy
Stream size : 8.35 MiB (3%)
Alignment : Aligned on interleaves
Interleave, duration : 40 ms (1.00 video frame)
Interleave, preload duration : 504 ms
Other forum [Profile] [PM]
Display posts from previous:    
Reply to topic

The time now is: Today 14:51

All times are GMT + 3 Hours



You cannot post new topics in this forum
You cannot reply to topics in this forum
You cannot edit your posts in this forum
You cannot delete your posts in this forum
You cannot vote in polls in this forum
You cannot attach files in this forum
You cannot download files in this forum