Today is a free download without charge Download

Alice Cooper, Radiohead, Red Hot Chili Peppers - Live at Bonnaroo 2012 [2012, Funk Rock / Hard Rock / Alternative Rock, HDTV 1080i]

Reply to topic
 
Author
Message

Omen ®

Longevity: 8 years 4 months

Posts: 181087

Торрент-статистика

Post 26-Jun-2013 21:04

[Quote]

VA - Live at Bonnaroo 2012

Жанр: Funk Rock / Hard Rock / Alternative Rock
Продолжительность: 06:24:51
Год выпуска: 2012
Описание:
Крутые рокеры на крутом фестивале Bonnaroo в 2012 году.
Credits to TrollHD
Качество: HDTV 1080i
Контейнер: TS
Видео кодек: H.264
Аудио кодек: MP2
Видео: MPEG4 Video (H264) 1920x1080i 29.97fps 14.7Mbps
Аудио: MPEG Audio 48000Hz stereo 384kbps


Трэклист:

Alice Cooper (01:44:37)

01. The Black Widow
02. Brutal Planet
03. I'm Eighteen
04. Under My Wheels
05. Billion Dollar Babies
06. No More Mr. Nice Guy
07. Hey Stoopid
08. Is It My Body
09. Halo of Flies
10. I'll Bite Your Face Off
11. Muscle of Love
12. Only Women Bleed
13. Cold Ethyl
14. Feed My Frankenstein
15. Caffeine
16. Poison
17. Wicked Young Man
18. I Love the Dead
19. School's Out
20. Elected
21. Born This Way

Radiohead (02:25:24)

01. Bloom
02.15 Step
03. Kid A
04. Weird Fishes/Arpeggi
05. Staircase
06. The Daily Mail
07. I Might Be Wrong
08. The Gloaming
09. Separator
10. Nude
11. Morning Mr.Magpie
12. Identikit
13. Lotus Flower
14. There There
15. Karma Police
16. Feral
17. Idioteque
18. You And Whose Army? (Encore #1)
19. House Of Cards
20. Supercollider
21. Bodysnatchers
22. True Love Waits/Everything In Its Right Place
23. Give Up The Ghost
24. Reckoner
25. Paranoid Android

Red Hot Chili Peppers (02:14:50)

01. Monarchy of Roses
02. Can't Stop
03. Dani California
04. Scar Tissue
05. Look Around
06. Throw Away Your Television
07. Charlie
08. The Adventures of Rain Dance Maggie
09. Right on Time
10. If You Have to Ask
11. Factory of Faith
12. Under the Bridge
13. Higher Ground (Stevie Wonder cover)
14. Californication
15. By the Way
Encore:
16. Chad & Mauro & Josh Jam
17. Suck My Kiss
18. Ethiopia
19. Give It Away
20. Final Jam

Отчёт MediaInfo Radiohead

ОбщееИдентификатор : 1 (0x1)Полное имя : I:\sistem\It's Rock babe\Live at Bonnaroo 2012\Radiohead - Live at Bonnaroo 2012 1080i HDTV MPA 2.0 H.264-TrollHD.tsФормат : MPEG-TSРазмер файла : 16,1 ГбайтПродолжительность : 2 ч. 25 м.Режим общего битрейта : ПеременныйОбщий поток : 15,9 Мбит/секМаксимальный общий битрейт : 35,5 Мбит/сек
ВидеоИдентификатор : 4113 (0x1011)Идентификатор меню : 1 (0x1)Формат : AVCФормат/Информация : Advanced Video CodecПрофиль формата : [email protected]Параметр CABAC формата : ДаПараметр ReFrames формата : 4 кадраПараметр GOP формата : M=3, N=30Идентификатор кодека : 27Продолжительность : 2 ч. 25 м.Вид битрейта : ПеременныйБитрейт : 14,7 Мбит/секМаксимальный битрейт : 16,2 Мбит/секШирина : 1920 пикселейВысота : 1080 пикселейСоотношение сторон : 16:9Частота кадров : 29,970 кадров/секЦветовое пространство : YUVСубдискретизация насыщенности : 4:2:0Битовая глубина : 8 битТип развёртки : MBAFFПорядок развёртки : Верхнее поле первоеБит/(Пиксели*Кадры) : 0.237Размер потока : 15,0 Гбайт (93%)Основные цвета : BT.709Характеристики трансфера : BT.709Коэффициенты матрицы : BT.709
АудиоИдентификатор : 4352 (0x1100)Идентификатор меню : 1 (0x1)Формат : MPEG AudioВерсия формата : Version 1Профиль формата : Layer 2Расширение режима : Intensity Stereo + MS StereoИдентификатор кодека : 4Продолжительность : 2 ч. 25 м.Вид битрейта : ПостоянныйБитрейт : 384 Кбит/секКаналы : 2 каналаЧастота : 48,0 КГцМетод сжатия : С потерямиРазмер потока : 399 Мбайт (2%)Язык : English
Other forum [Profile] [PM]
Display posts from previous:    
Reply to topic

The time now is: Today 13:17

All times are GMT + 3 Hours



You cannot post new topics in this forum
You cannot reply to topics in this forum
You cannot edit your posts in this forum
You cannot delete your posts in this forum
You cannot vote in polls in this forum
You cannot attach files in this forum
You cannot download files in this forum